<?xml version="1.0" standalone="no"?>
<!DOCTYPE svg PUBLIC "-//W3C//DTD SVG 1.1//EN" "http://www.w3.org/Graphics/SVG/1.1/DTD/svg11.dtd" >
<svg>
<metadata>
Created by FontForge 20090914 at Fri Jul  5 04:22:16 2019
 By www-data
Copyright (c) 2011-2012, Jonathan Pinhorn (jonpinhorn.typedesign@gmail.com), with Reserved Font Names 'Karla'
</metadata>
<defs>
<font id="Karla-BoldItalic" horiz-adv-x="276" >
  <font-face 
    font-family="Karla"
    font-weight="700"
    font-style="italic"
    font-stretch="normal"
    units-per-em="1000"
    panose-1="0 0 0 0 0 0 0 0 0 0"
    ascent="800"
    descent="-200"
    x-height="487"
    cap-height="651"
    bbox="-87.999 -252.001 922.842 917"
    underline-thickness="50"
    underline-position="-50"
    unicode-range="U+0020-U+2212"
  />
<missing-glyph horiz-adv-x="533" 
 />
    <glyph glyph-name=".notdef" horiz-adv-x="533" 
 />
    <glyph glyph-name="space" unicode=" " horiz-adv-x="229" 
 />
    <glyph glyph-name="space" unicode="&#xa0;" horiz-adv-x="229" 
 />
    <glyph glyph-name="exclam" unicode="!" horiz-adv-x="265" 
d="M141 668h120l-54 -445h-94zM85.5 14c-13 15.333 -18.502 34.5 -16.502 57.5s10.833 42.333 26.5 58s34.834 23.5 57.501 23.5s40.334 -7.83301 53.001 -23.5s18 -35 16 -58s-11 -42.167 -27 -57.5s-35 -23 -57 -23s-39.5 7.66699 -52.5 23z" />
    <glyph glyph-name="quotedbl" unicode="&#x22;" horiz-adv-x="352" 
d="M203 686l-38 -239h-80l8 239h110zM387 686l-38 -239h-80l8 239h110z" />
    <glyph glyph-name="numbersign" unicode="#" horiz-adv-x="615" 
d="M372 163h-120l-25 -130h-103l25 130h-82l14 80h82l30 156h-83l16 80h82l25 128h103l-25 -128h121l25 128h103l-25 -128h86l-18 -80h-83l-30 -156h85l-15 -80h-84l-25 -130h-104zM266 243h121l29 156h-120z" />
    <glyph glyph-name="dollar" unicode="$" horiz-adv-x="625" 
d="M475 344c44 -17.333 75.8301 -39.1689 95.4971 -65.502s27.5 -61.166 23.5 -104.499c-4 -48.667 -25.333 -90 -64 -124c-43.333 -37.333 -100 -58.333 -170 -63l-9 -89h-76l8 91c-63.333 7.33301 -112.666 28.333 -147.999 63c-38.667 37.333 -54.667 88 -48 152h109
c-3.33301 -31.333 3.33398 -55 20.001 -71s42.667 -26.667 78 -32l18 190l-46 18c-48.667 18.667 -85.667 41.334 -111 68.001s-35.666 63.834 -30.999 111.501s25.834 87.334 63.501 119.001s90.5 50.167 158.5 55.5l8 76h78l-8 -77
c109.333 -14 167.666 -78.333 174.999 -193h-108c-1.33301 19.333 -8.5 36.666 -21.5 51.999s-31.167 26.666 -54.5 33.999l-18 -179zM442.997 125.997c16 14.667 25 31.333 27 50c2.66699 36.667 -16 64 -56 82l-28 12l-15 -171c32 3.33301 56 12.333 72 27z
M268.997 531.496c-15.333 -13.667 -23.833 -29.5 -25.5 -47.5s1.83301 -32.333 10.5 -43s22.667 -20 42 -28l26 -13l15 158c-30 -4 -52.667 -12.833 -68 -26.5z" />
    <glyph glyph-name="percent" unicode="%" horiz-adv-x="691" 
d="M240 664c16.667 0 32.334 -3.16699 47.001 -9.5s27 -15.833 37 -28.5c23.333 -28 32.333 -66.833 27 -116.5s-21.5 -87 -48.5 -112s-57.167 -37.5 -90.5 -37.5c-35.333 0 -63 12.667 -83 38c-22.667 28 -31.334 66 -26.001 114c4 48 20 86 48 114
c25.333 25.333 55 38 89 38zM233 587c-28 0 -44.332 -25 -48.999 -75c-6 -50 5.66699 -75 35 -75s45.666 25 48.999 75c4.66699 50 -7 75 -35 75zM554.001 651h111l-459 -651h-112zM655.001 137.5c-4.66699 -50.333 -20.333 -88.167 -47 -113.5s-57 -38 -91 -38
c-35.333 0 -63 12.667 -83 38c-23.333 28 -32.333 67 -27 117s21.5 87.5 48.5 112.5s57.667 37.5 92 37.5s62 -13 83 -39s29.167 -64.167 24.5 -114.5zM538.002 213.999c-27.333 0 -43.332 -24.665 -47.999 -73.998c-4.66699 -50.667 6.66602 -76 33.999 -76
c12 0 22.667 5.66699 32 17s15.5 30.666 18.5 57.999s0.833008 46.666 -6.5 57.999s-17.333 17 -30 17z" />
    <glyph glyph-name="ampersand" unicode="&#x26;" horiz-adv-x="872" 
d="M731 343c-34 -82 -73.3311 -150.334 -117.998 -205.001l12 -13c18.667 -21.333 39.667 -32 63 -32c14 0 26.667 5.83301 38 17.5s18.666 30.167 21.999 55.5h99c-6.66699 -55.333 -23.167 -99.166 -49.5 -131.499s-62.5 -48.5 -108.5 -48.5
c-54.667 0 -104.334 26.333 -149.001 79c-66.667 -52.667 -136 -79 -208 -79c-67.333 0 -122.666 19 -165.999 57c-44 38 -63.333 85.667 -58 143c7.33301 86.667 67 139.667 179 159l-13 15c-38.667 45.333 -55.667 93 -51 143c4 46 25 83.667 63 113
c39.333 30.667 89.666 46 150.999 46c60.667 0 107.667 -15.333 141 -46c30.667 -29.333 44 -65.666 40 -108.999s-20 -80 -48 -110s-68 -55.667 -120 -77l100 -112c41.333 49.333 78.333 109.666 111 180.999zM343.002 282.999c-72.667 -10 -110.333 -40 -113 -90
c-3.33301 -27.333 5 -50.333 25 -69s49.333 -28 88 -28c44.667 0 88 14 130 42zM496.003 488.999c1.33301 19.333 -4.16699 35.5 -16.5 48.5s-30.333 19.5 -54 19.5s-43 -7 -58 -21s-23.5 -29.833 -25.5 -47.5s0 -33 6 -46s15.667 -26.5 29 -40.5l18 -20
c32 14 56 29.5 72 46.5s25.667 37.167 29 60.5z" />
    <glyph glyph-name="quotesingle" unicode="'" horiz-adv-x="166" 
d="M202 677l-38 -240h-80l8 240h110z" />
    <glyph glyph-name="parenleft" unicode="(" horiz-adv-x="364" 
d="M421 692c-56.667 -60 -100.668 -120 -132.001 -180s-50.166 -124.333 -56.499 -193s0.5 -132.667 20.5 -192s53 -119 99 -179l-86 -67c-114 124 -163.333 270 -148 438c16 168.667 93 314.667 231 438z" />
    <glyph glyph-name="parenright" unicode=")" horiz-adv-x="364" 
d="M180 757c113.333 -124 162.666 -270 147.999 -438c-14.667 -164.667 -91.667 -310.667 -231 -438l-74 67c58.667 60 103.667 119.667 135 179s50 123.333 56 192c6.66699 68.667 -0.166016 133 -20.499 193s-53.5 120 -99.5 180z" />
    <glyph glyph-name="asterisk" unicode="*" horiz-adv-x="368" 
d="M193 529l-96 37l34 71l85 -49l-1 118h74l-22 -118l93 52l22 -73l-102 -37l69 -81l-58 -52l-57 100l-78 -100l-48 52z" />
    <glyph glyph-name="plus" unicode="+" horiz-adv-x="492" 
d="M346 491l-17 -192h174l-11 -107h-174l-18 -192h-109l18 192h-175l10 107h175l18 192h109z" />
    <glyph glyph-name="comma" unicode="," horiz-adv-x="232" 
d="M63 18.5c-10.667 12.333 -15.168 28.501 -13.501 48.501s10.334 37.167 26.001 51.5s35.834 21.5 60.501 21.5s43.667 -10.833 57 -32.5s18.5 -48 15.5 -79s-15.167 -62.167 -36.5 -93.5s-49 -56 -83 -74l-77 46c50 26.667 80.667 56 92 88
c-16.667 3.33301 -30.334 11.166 -41.001 23.499z" />
    <glyph glyph-name="hyphen" unicode="-" horiz-adv-x="338" 
d="M76 356h254l-11 -107h-253z" />
    <glyph glyph-name="period" unicode="." horiz-adv-x="196" 
d="M33 72c1.33301 22.667 10 41.834 26 57.501s35 23.5 57 23.5s39.667 -7.83301 53 -23.5s19 -34.834 17 -57.501c-2 -23.333 -11 -42.666 -27 -57.999s-35.333 -23 -58 -23s-40.5 7.66699 -53.5 23s-17.833 34.666 -14.5 57.999z" />
    <glyph glyph-name="slash" unicode="/" horiz-adv-x="429" 
d="M349 746h113l-311 -828h-111z" />
    <glyph glyph-name="zero" unicode="0" horiz-adv-x="573" 
d="M365 664c74.667 0 130.998 -27.668 168.998 -83.001c40 -59.333 54.667 -144.666 44 -255.999c-10 -110.667 -40.667 -195.667 -92 -255c-49.333 -56 -111 -84 -185 -84s-130.333 28 -169 84c-39.333 58 -53.666 143 -42.999 255c10.667 112.667 41 198 91 256
c48.667 55.333 110.334 83 185.001 83zM445.998 495.499c-19.333 39 -49.8311 58.5 -91.498 58.5s-75.834 -19.5 -102.501 -58.5s-43.5 -95.667 -50.5 -170s-1 -130.833 18 -169.5s49.5 -58 91.5 -58s76.167 19.333 102.5 58s43.166 95.167 50.499 169.5
s1.33301 131 -18 170z" />
    <glyph glyph-name="one" unicode="1" horiz-adv-x="323" 
d="M301 655l-61.001 -655h-111l48 509c-32 -16 -63.333 -24 -94 -24l11 117c46.667 7.33301 88.334 25 125.001 53h82z" />
    <glyph glyph-name="two" unicode="2" horiz-adv-x="546" 
d="M174 111h333.997l-10 -111h-444l10 113c5.33301 54 20.333 96.667 45 128c23.333 29.333 59 54.333 107 75l126 51c52.667 22 81 56.667 85 104c2.66699 24 -3.16602 44.5 -17.499 61.5s-36.166 25.5 -65.499 25.5s-54.333 -8 -75 -24s-34.334 -39.667 -41.001 -71h-122
c8 66.667 35 117 81 151c44.667 33.333 99.334 50 164.001 50c61.333 0 110 -18 146 -54c37.333 -37.333 53.5 -83.166 48.5 -137.499s-21.333 -97.833 -49 -130.5s-68.167 -60.334 -121.5 -83.001l-128 -52c-24 -9.33301 -41.667 -19.833 -53 -31.5
s-17.666 -27.167 -18.999 -46.5z" />
    <glyph glyph-name="three" unicode="3" horiz-adv-x="563" 
d="M341 554c-64.667 0 -105.001 -27.335 -121.001 -82.002h-116c12.667 66.667 41 115.334 85 146.001s96.667 46 158 46c65.333 0 116.666 -16.667 153.999 -50c38.667 -34 55.334 -78 50.001 -132c-7.33301 -70 -44 -117 -110 -141c34 -13.333 60.5 -33.166 79.5 -59.499
s27 -56.666 24 -90.999s-11.333 -63.5 -25 -87.5s-31.834 -44.667 -54.501 -62c-46.667 -36.667 -105 -55 -175 -55c-66.667 0 -121 18.667 -163 56c-46.667 40.667 -67 95 -61 163h118c-1.33301 -33.333 8.33398 -59.5 29.001 -78.5s49.5 -28.5 86.5 -28.5s66.5 9 88.5 27
s34.667 41 38 69c2.66699 28 -4.66602 49.667 -21.999 65s-46 23 -86 23h-79l9 96h69c34 0 61 8 81 24s31.167 37.167 33.5 63.5s-3.66699 47.666 -18 63.999s-38.5 24.5 -72.5 24.5z" />
    <glyph glyph-name="four" unicode="4" horiz-adv-x="538" 
d="M486 658l-38 -411h101l-9 -104h-101l-14 -143h-109l13 143h-296l8 92l339 423h106zM171 235h173l22 243z" />
    <glyph glyph-name="five" unicode="5" horiz-adv-x="526" 
d="M245 397c34.667 6 65.999 9.00195 93.999 9.00195c60.667 0 107.334 -16.333 140.001 -49s46 -79.334 40 -140.001c-5.33301 -65.333 -30.666 -120 -75.999 -164c-46 -44.667 -102.333 -67 -169 -67c-65.333 0 -115.666 18.333 -150.999 55
c-36.667 38 -52.334 89.667 -47.001 155h113c-3.33301 -33.333 4.16699 -58 22.5 -74s42.5 -24 72.5 -24c32 0 60 11.333 84 34c22 21.333 35 49.666 39 84.999c5.33301 64.667 -31.334 97 -110.001 97h-180l58 337h354l-11 -112h-247z" />
    <glyph glyph-name="six" unicode="6" horiz-adv-x="549" 
d="M441 471c-2.66699 55.333 -27.6631 83.002 -74.9961 83.002c-51.333 0 -93 -28.333 -125 -85c-32.667 -58 -49 -134 -49 -228c23.333 106 82.666 159 177.999 159c55.333 0 98.666 -19.333 129.999 -58c30.667 -38.667 43.334 -88.334 38.001 -149.001
c-6.66699 -62.667 -31.334 -112.667 -74.001 -150c-43.333 -38 -96.333 -57 -159 -57c-73.333 0 -131 30.667 -173 92c-40.667 61.333 -56.334 140 -47.001 236c10.667 111.333 42.334 198 95.001 260c51.333 60 115.666 90 192.999 90c58 0 104.333 -17.667 139 -53
c33.333 -34.667 48.666 -81.334 45.999 -140.001h-117zM334.004 300.002c-28 0 -52.499 -9.33203 -73.499 -27.999s-32.833 -43.334 -35.5 -74.001c-2.66699 -28.667 4.66602 -52.667 21.999 -72c16 -18.667 38.333 -28 67 -28s53.334 9.16699 74.001 27.5s32.667 43 36 74
s-3.83398 55.5 -21.501 73.5s-40.5 27 -68.5 27z" />
    <glyph glyph-name="seven" unicode="7" horiz-adv-x="450" 
d="M496 651l-12 -117l-298 -534h-147l316 533h-283l11 118h413z" />
    <glyph glyph-name="eight" unicode="8" horiz-adv-x="585" 
d="M574 477c-3.33301 -32.667 -16.335 -61.666 -39.002 -86.999s-53 -41.666 -91 -48.999l3 -2c44 -20 75 -41.667 93 -65c20.667 -26 29.334 -56.167 26.001 -90.5s-11.5 -62.833 -24.5 -85.5s-30.833 -42.334 -53.5 -59.001c-49.333 -35.333 -112.666 -53 -189.999 -53
c-74.667 0 -133.334 18 -176.001 54c-42 36 -60.333 81.333 -55 136c4.66699 40.667 21 73.334 49 98.001s62 39.667 102 45c-50 27.333 -82 63.666 -96 108.999c-5.33301 17.333 -7 36.666 -5 57.999c5.33301 55.333 29.333 98.833 72 130.5s98.334 47.5 167.001 47.5
s123.5 -17.5 164.5 -52.5s58.833 -79.833 53.5 -134.5zM308.998 277.001c-34.667 -2 -64.0029 -11.499 -88.0029 -28.499s-37 -37.167 -39 -60.5c-2.66699 -26.667 8.66602 -48.667 33.999 -66c22.667 -16 55.334 -24 98.001 -24s75.834 6.33301 99.501 19
s36.334 28.167 38.001 46.5s-2.16602 33.166 -11.499 44.499s-23 21.333 -41 30zM240.995 510.002c-6.66699 -8.66699 -10.667 -19.668 -12 -33.001c-2.66699 -25.333 15 -46.333 53 -63l64 -29c28 0 53.333 8 76 24c22.667 16.667 35.167 37.334 37.5 62.001
s-6.5 44.667 -26.5 60s-47 23 -81 23c-51.333 0 -88.333 -14.667 -111 -44z" />
    <glyph glyph-name="nine" unicode="9" horiz-adv-x="552" 
d="M334 664c33.333 0 64.501 -7.83203 93.501 -23.499s53.5 -37.834 73.5 -66.501c43.333 -62.667 60.333 -142 51 -238c-16.667 -168 -72.667 -276.667 -168 -326c-31.333 -16 -64.666 -24 -99.999 -24s-65.666 5 -90.999 15s-47 24.333 -65 43
c-38 39.333 -53.667 89 -47 149h115c-2 -30 5.16699 -53.333 21.5 -70s37.333 -25 63 -25s47.667 5.83301 66 17.5s34.166 28.5 47.499 50.5c24 40.667 40.333 100.667 49 180c2.66699 18.667 3.33398 37.667 2.00098 57c-27.333 -101.333 -87.333 -152 -180 -152
c-54.667 0 -97.334 19.167 -128.001 57.5s-43.334 87.833 -38.001 148.5c5.33301 61.333 29.666 111.333 72.999 150c43.333 38 97.333 57 162 57zM248.501 525.501c-21 -18.333 -33.165 -43.168 -36.498 -74.501s4 -55.833 22 -73.5s40.667 -26.5 68 -26.5
s51.666 9.33301 72.999 28s33.666 43 36.999 73c2.66699 30.667 -5 55.334 -23 74.001c-17.333 18 -39.833 27 -67.5 27s-52 -9.16699 -73 -27.5z" />
    <glyph glyph-name="colon" unicode=":" horiz-adv-x="246" 
d="M58 88c1.33301 22.667 10 41.832 26 57.499s35 23.5 57 23.5s39.667 -7.83301 53 -23.5s19 -35.167 17 -58.5s-11 -42.666 -27 -57.999s-35.333 -23 -58 -23s-40.5 7.66699 -53.5 23s-17.833 35 -14.5 59zM87 383.998c1.33301 22.667 10 41.833 26 57.5s35 23.5 57 23.5
s39.667 -7.83301 53 -23.5s19 -35.167 17 -58.5s-11 -42.5 -27 -57.5s-35.333 -22.5 -58 -22.5s-40.5 7.5 -53.5 22.5s-17.833 34.5 -14.5 58.5z" />
    <glyph glyph-name="semicolon" unicode=";" horiz-adv-x="281" 
d="M90.5 18.5c-11 12.333 -15.667 28.502 -14 48.502s10.334 37.167 26.001 51.5s32.5 21.5 50.5 21.5s32.167 -3 42.5 -9s18.833 -14 25.5 -24c13.333 -20 18.5 -45.833 15.5 -77.5s-15.333 -63.167 -37 -94.5s-49.5 -56 -83.5 -74l-76 46
c49.333 27.333 79.666 56.666 90.999 87.999c-16 3.33301 -29.5 11.166 -40.5 23.499zM128.5 325.502c-13 15 -18.5 34.167 -16.5 57.5s11 42.833 27 58.5s35.167 23.5 57.5 23.5s40.166 -7.83301 53.499 -23.5s19 -35.167 17 -58.5s-11.167 -42.5 -27.5 -57.5
s-35.666 -22.5 -57.999 -22.5s-40 7.5 -53 22.5z" />
    <glyph glyph-name="less" unicode="&#x3c;" horiz-adv-x="456" 
d="M466 528l-282 -204l243 -204l-82 -93l-279 242l11 111l324 241z" />
    <glyph glyph-name="equal" unicode="=" horiz-adv-x="457" 
d="M404 199l-11 -106h-314l10 106h315zM424 411l-9 -105h-315l9 105h315z" />
    <glyph glyph-name="greater" unicode="&#x3e;" horiz-adv-x="456" 
d="M171 621l279 -241l-10 -111l-326 -242l-63 93l281 204l-242 204z" />
    <glyph glyph-name="question" unicode="?" horiz-adv-x="467" 
d="M484 482c-3.33301 -36 -13.8359 -65.833 -31.5029 -89.5s-44.167 -44.5 -79.5 -62.5c-30.667 -16 -50.667 -29.667 -60 -41c-15.333 -20 -23.666 -41.333 -24.999 -64l-2 -28h-111l4 40c5.33301 60 25.666 103 60.999 129c12 8.66699 26 17.167 42 25.5s29 16 39 23
s18 14.167 24 21.5c10.667 12 17 27.833 19 47.5s-3.83301 36.334 -17.5 50.001s-34.834 20.5 -63.501 20.5s-52.167 -7.83301 -70.5 -23.5s-29.5 -36.167 -33.5 -61.5h-114c8.66699 59.333 32.334 106.666 71.001 141.999s90.334 53 155.001 53
s114.334 -17.333 149.001 -52s49.334 -78 44.001 -130zM171.497 124.5c15.667 15 34.668 22.5 57.001 22.5s40.166 -7.5 53.499 -22.5s18.666 -34.167 15.999 -57.5c-1.33301 -23.333 -10.166 -42.666 -26.499 -57.999s-36 -23 -59 -23s-40.5 7.66699 -52.5 23
s-17 34.666 -15 57.999s10.833 42.5 26.5 57.5z" />
    <glyph glyph-name="at" unicode="@" horiz-adv-x="932" 
d="M586 279c4.66699 45.333 -9.00098 67.999 -41.001 67.999c-28 0 -55 -13.667 -81 -41c-29.333 -31.333 -46 -69 -50 -113c-2 -29.333 3 -51.666 15 -66.999s28.5 -23 49.5 -23s38.833 6.33301 53.5 19s29.334 32 44.001 58zM397.999 630.999
c56.667 22 115.161 32.999 175.494 32.999s112.833 -9.66699 157.5 -29s82 -45.666 112 -78.999c61.333 -69.333 87.333 -157 78 -263c-7.33301 -88.667 -36.666 -160.334 -87.999 -215.001c-47.333 -49.333 -100 -74 -158 -74c-28.667 0 -51.5 5.83301 -68.5 17.5
s-27.833 27.834 -32.5 48.501l-3 16c-14 -25.333 -30.333 -45.333 -49 -60s-40.667 -22 -66 -22s-46.5 4.66699 -63.5 14s-31.5 22.333 -43.5 39c-28 37.333 -39.333 82 -34 134c6.66699 69.333 34 128.333 82 177c46.667 48 100 72 160 72
c40.667 0 71.834 -13.167 93.501 -39.5s29.834 -66.5 24.501 -120.5l-13 -129c-3.33301 -34 5.33398 -51 26.001 -51c23.333 0 47 14.667 71 44c28.667 36 46 85.667 52 149c8 76 -8.66699 138 -50 186c-44.667 50.667 -108.667 76 -192 76
c-99.333 0 -183.666 -34 -252.999 -102s-108.666 -152.333 -117.999 -253c-9.33301 -96 13 -173 67 -231c56 -60 138 -90 246 -90l-9 -101c-68.667 0 -129.834 11.167 -183.501 33.5s-98.5 53 -134.5 92s-62.333 84.667 -79 137s-22 110.5 -16 174.5s23 124 51 180
s63.833 103.833 107.5 143.5s93.834 70.5 150.501 92.5z" />
    <glyph glyph-name="A" unicode="A" horiz-adv-x="568" 
d="M280 651h138l131 -651h-117l-27 138h-216l-54 -138h-115zM226 230h161l-54 277z" />
    <glyph glyph-name="B" unicode="B" horiz-adv-x="585" 
d="M144 651h239c65.333 0 114.333 -17 147 -51c29.333 -30 42 -70.667 38 -122c-3.33301 -36.667 -15.333 -68 -36 -94s-48 -44.333 -82 -55c32 -7.33301 57.5 -23.833 76.5 -49.5s26.5 -58.5 22.5 -98.5c-8 -81.333 -49 -136.333 -123 -165
c-28 -10.667 -62.667 -16 -104 -16h-239zM329 106c62 0 96 27.333 102 82c2.66699 25.333 -3 45.5 -17 60.5s-37.333 22.5 -70 22.5h-126l-16 -165h127zM228 378h124c31.333 0 55.5 7.5 72.5 22.5s26.833 35.333 29.5 61s-3 46.167 -17 61.5s-37 23 -69 23h-124z" />
    <glyph glyph-name="C" unicode="C" horiz-adv-x="573" 
d="M373 664c36 0 66.8301 -4.83301 92.4971 -14.5s47.167 -23.5 64.5 -41.5c36 -35.333 56 -83 60 -143l-119 -24c-5.33301 34 -16.833 61.333 -34.5 82s-41.5 31 -71.5 31c-40 0 -74.333 -18.667 -103 -56c-29.333 -40 -48 -97 -56 -171
c-6 -72.667 0.666992 -129.167 20 -169.5s49.5 -60.5 90.5 -60.5s72.667 11.167 95 33.5s35.166 50.5 38.499 84.5h118c-7.33301 -73.333 -33.666 -129.833 -78.999 -169.5s-104.666 -59.5 -177.999 -59.5c-78 0 -137.167 30 -177.5 90s-55.166 143.667 -44.499 251
s42.334 191 95.001 251c50.667 57.333 113.667 86 189 86z" />
    <glyph glyph-name="D" unicode="D" horiz-adv-x="619" 
d="M336 651c88.667 0 157.832 -29.333 207.499 -88s69.834 -138 60.501 -238c-9.33301 -97.333 -44.333 -176.333 -105 -237c-60 -58.667 -134.667 -88 -224 -88h-193l61 651h193zM202.998 111l81.999 -0.000976562c54.667 0 100.334 20.333 137.001 61
c35.333 38 56.333 89 63 153c5.33301 64.667 -6 116.334 -34 155.001c-30 40 -72.333 60 -127 60h-81z" />
    <glyph glyph-name="E" unicode="E" horiz-adv-x="529" 
d="M143 651h379l-10 -105h-269l-16 -167h252l-10 -106h-252l-16 -167h269l-9 -106h-379z" />
    <glyph glyph-name="F" unicode="F" horiz-adv-x="494" 
d="M144 651h371l-10 -105h-261l-16 -168h238l-11 -104h-237l-25 -274h-110z" />
    <glyph glyph-name="G" unicode="G" horiz-adv-x="612" 
d="M466 106c-32 -80 -84.0029 -120 -156.003 -120c-74 0 -131.667 30.667 -173 92c-43.333 64.667 -60.333 146 -51 244c10.667 104 45 187.333 103 250c56 61.333 125 92 207 92c56 0 101.333 -13.333 136 -40s59.334 -69.334 74.001 -128.001l-115 -28
c-24.667 57.333 -62 86 -112 86c-44 0 -82.333 -20.667 -115 -62c-34.667 -45.333 -54.667 -102 -60 -170c-6.66699 -67.333 1.5 -121.5 24.5 -162.5s54.833 -61.5 95.5 -61.5s74.334 12.667 101.001 38s43.334 61 50.001 107c0 6 3 9 9 9l17 -1
c-5.33301 -62.667 -17.333 -116 -36 -160c0 26.667 1.83301 53.834 5.5 81.501s5.5 55.167 5.5 82.5l-130 3l7 78h235l-31 -336h-89c-0.666992 17.333 -1 35 -1 53s-0.333008 35.667 -1 53z" />
    <glyph glyph-name="H" unicode="H" horiz-adv-x="638" 
d="M254 651l-26 -270h253l26 270h109l-61 -651h-110l25 274h-252l-25 -274h-110l61 651h110z" />
    <glyph glyph-name="I" unicode="I" 
d="M144 651h110l-61 -651h-110z" />
    <glyph glyph-name="J" unicode="J" horiz-adv-x="404" 
d="M158 -14c-46.667 0 -93.665 13.667 -140.998 41l12 121c41.333 -28.667 84.666 -43 129.999 -43c25.333 0 44.5 8 57.5 24s21.167 41 24.5 75l42 447h112l-43 -447c-14.667 -145.333 -79.334 -218 -194.001 -218z" />
    <glyph glyph-name="K" unicode="K" horiz-adv-x="593" 
d="M255 651l-25 -265l253 265h150l-285 -293l241 -358h-142l-181 273l-51 -53l-21 -220h-111l61 651h111z" />
    <glyph glyph-name="L" unicode="L" horiz-adv-x="447" 
d="M202 106h239l-9 -106h-349l61 651h110z" />
    <glyph glyph-name="M" unicode="M" horiz-adv-x="789" 
d="M301 651l121 -382l193 382h152l-61 -651h-111l45 490l-202 -420h-71l-127 436l-47 -506h-110l61 651h157z" />
    <glyph glyph-name="N" unicode="N" horiz-adv-x="648" 
d="M262 651l212 -456l43 456h110l-61 -651h-111l-220 472l-44 -472h-110l61 651h120z" />
    <glyph glyph-name="O" unicode="O" horiz-adv-x="618" 
d="M387 664c81.333 0 143 -28.334 185 -85.001c44.667 -58.667 61.667 -143 51 -253c-10 -110.667 -43 -196 -99 -256c-52 -56 -119 -84 -201 -84c-80.667 0 -142.334 28.667 -185.001 86c-43.333 58.667 -59.666 143.334 -48.999 254.001c10 110.667 42.667 195.667 98 255
c51.333 55.333 118 83 200 83zM483.5 494.999c-24.333 40 -59.8311 59.998 -106.498 59.998s-85.834 -20.167 -117.501 -60.5s-51 -97.166 -58 -170.499s1.5 -129.666 25.5 -168.999s59.5 -59 106.5 -59s86.167 19.833 117.5 59.5s50.666 96.167 57.999 169.5
s-1.16699 130 -25.5 170z" />
    <glyph glyph-name="P" unicode="P" horiz-adv-x="525" 
d="M500.5 597.5c33.667 -35.667 47.333 -87 41 -154s-29.833 -118.5 -70.5 -154.5s-94.334 -54 -161.001 -54h-97l-22 -235h-111l61 651h209c66.667 0 116.834 -17.833 150.501 -53.5zM320.999 342c32 0 57.167 9.33301 75.5 28s28.833 43 31.5 73
c3.33301 30 -2.5 54.667 -17.5 74s-38.833 29 -71.5 29h-97l-19 -204h98z" />
    <glyph glyph-name="Q" unicode="Q" horiz-adv-x="620" 
d="M491 -61c26 0 55.668 7.66699 89.001 23l-12 -125c-26.667 -12 -54.334 -18 -83.001 -18s-55 8.83301 -79 26.5s-44 42.834 -60 75.501l-32 65c-78 1.33301 -137.333 30.666 -178 87.999c-42 59.333 -57.667 143.333 -47 252c10 110.667 42.667 195.667 98 255
c51.333 55.333 118 83 200 83c81.333 0 143 -28.333 185 -85c44.667 -58.667 61.667 -143 51 -253c-9.33301 -90 -32 -161.833 -68 -215.5s-81.333 -90.167 -136 -109.5l11 -23c12.667 -24.667 33 -37.667 61 -39zM483.501 495c-24.333 40 -59.8311 59.998 -106.498 59.998
s-85.834 -20.167 -117.501 -60.5s-51 -97.166 -58 -170.499s1.5 -129.666 25.5 -168.999s59.5 -59 106.5 -59s86.167 19.833 117.5 59.5s50.666 96.167 57.999 169.5s-1.16699 130 -25.5 170z" />
    <glyph glyph-name="R" unicode="R" horiz-adv-x="583" 
d="M563 451c-5.33301 -46.667 -20.833 -86.333 -46.5 -119s-61.167 -55.667 -106.5 -69l132 -263h-143l-104 253h-79l-23 -253h-110l61 651h218c70.667 0 123.167 -18.167 157.5 -54.5s48.833 -84.833 43.5 -145.5zM321 334.001c38.667 0 68.833 9.66797 90.5 29.001
s34.167 44.666 37.5 75.999c2 32 -4.83301 57.833 -20.5 77.5s-41.167 29.5 -76.5 29.5h-108l-21 -212h98z" />
    <glyph glyph-name="S" unicode="S" horiz-adv-x="577" 
d="M443 469c-4.66699 56.667 -37.6719 84.9961 -99.0049 84.9961c-30 0 -54 -6.66699 -72 -20s-28 -29.5 -30 -48.5s2 -33.667 12 -44s26 -20.166 48 -29.499l123 -56c42 -19.333 73.167 -43.166 93.5 -71.499s28.5 -63.833 24.5 -106.5
c-5.33301 -60 -29.666 -107 -72.999 -141s-102 -51 -176 -51c-65.333 0 -116.666 17.667 -153.999 53c-42 40 -60.333 95 -55 165h109c-3.33301 -36.667 5.83398 -63.5 27.501 -80.5s48.834 -25.5 81.501 -25.5s59.834 6.66699 81.501 20s33.667 31.333 36 54
s-1.5 39.834 -11.5 51.501s-27 22.834 -51 33.501l-113 52c-44 19.333 -76.667 42.166 -98 68.499s-30 62.5 -26 108.5c5.33301 53.333 28.666 96 69.999 128c42 33.333 96.333 50 163 50s116.334 -17.167 149.001 -51.5s48.667 -82.166 48 -143.499h-108z" />
    <glyph glyph-name="T" unicode="T" horiz-adv-x="482" 
d="M67 651h471l-10 -105h-181l-52 -546h-109l52 546h-181z" />
    <glyph glyph-name="U" unicode="U" horiz-adv-x="624" 
d="M256 651l-38.999 -404c-7.33301 -75.333 14 -122.333 64 -141c15.333 -5.33301 32.333 -8 51 -8c38 0 70.167 11.5 96.5 34.5s42.166 61.167 47.499 114.5l39 404h109l-38 -404c-8 -83.333 -35 -147.666 -81 -192.999s-106.833 -68 -182.5 -68s-132.167 22.667 -169.5 68
s-52.333 109.666 -45 192.999l39 404h109z" />
    <glyph glyph-name="V" unicode="V" horiz-adv-x="550" 
d="M196 651l92 -498l190 498h115l-261 -651h-116l-137 651h117z" />
    <glyph glyph-name="W" unicode="W" horiz-adv-x="875" 
d="M203 651l80 -490l166 449h75l88 -451l183 492h124l-262 -651h-116l-74 362l-142 -362h-114l-131 651h123z" />
    <glyph glyph-name="X" unicode="X" horiz-adv-x="620" 
d="M589 0h-137l-132 228l-157 -228h-133l235 324l-175 327h134l124 -232l149 232h132l-227 -325z" />
    <glyph glyph-name="Y" unicode="Y" horiz-adv-x="549" 
d="M207 651l101 -256l157 256h130l-245 -382l-25 -269h-110l26 269l-164 382h130z" />
    <glyph glyph-name="Z" unicode="Z" horiz-adv-x="569" 
d="M75 105l348 434h-307l11 112h445l-11 -104l-346 -435h305l-9 -112h-445z" />
    <glyph glyph-name="bracketleft" unicode="[" horiz-adv-x="320" 
d="M158 796h227l-11 -110h-117l-68 -720h117l-11 -111h-226z" />
    <glyph glyph-name="backslash" unicode="\" horiz-adv-x="429" 
d="M91 747h111l311 -828h-113z" />
    <glyph glyph-name="bracketright" unicode="]" horiz-adv-x="307" 
d="M226 -145h-227l12 111h117l75 720h-117l11 110h228z" />
    <glyph glyph-name="asciicircum" unicode="^" horiz-adv-x="481" 
d="M38 215l217 390h89l143 -390h-121l-81 245l-127 -245h-120z" />
    <glyph glyph-name="underscore" unicode="_" horiz-adv-x="695" 
d="M45 -55h597l-10 -106h-597z" />
    <glyph glyph-name="grave" unicode="`" horiz-adv-x="324" 
d="M145 904l231 -132l-36 -76l-244 103z" />
    <glyph glyph-name="a" unicode="a" horiz-adv-x="528" 
d="M264 285c29.333 0 65 -6.00195 107 -18.002l5 46c0.666992 4.66699 1 9 1 13v11c0 25.333 -5.5 44 -16.5 56s-29.167 18 -54.5 18s-46 -6.16699 -62 -18.5s-25.333 -29.166 -28 -50.499h-120c6 55.333 27.833 95.5 65.5 120.5s85.834 37.5 144.501 37.5
c120.667 0 181 -54.333 181 -163v-13c0 -4.66699 -0.333008 -9.66699 -1 -15l-29 -309h-95c-1.33301 10.667 -2 21.334 -2 32.001s-0.333008 21.667 -1 33c-34.667 -52.667 -80 -79 -136 -79c-53.333 0 -94.333 13.667 -123 41c-26.667 25.333 -40 58.333 -40 99
c0 53.333 20.667 94 62 122c35.333 24.667 82.666 37 141.999 37zM364 188.998c-32 10.667 -58.667 15.999 -80 15.999s-37.5 -1.33301 -48.5 -4s-20.833 -6.66699 -29.5 -12c-19.333 -12 -29 -27.667 -29 -47s6.33301 -34.666 19 -45.999s29 -17 49 -17
s36.167 2.83301 48.5 8.5s23.5 13.5 33.5 23.5c20.667 20.667 33 46.667 37 78z" />
    <glyph glyph-name="b" unicode="b" horiz-adv-x="556" 
d="M233 427c33.333 48.667 77.002 72.999 131.002 72.999c50 0 90.667 -20 122 -60c32 -40.667 48 -93.667 48 -159c0 -70 -18.667 -134.333 -56 -193c-18.667 -29.333 -42.334 -53.666 -71.001 -72.999s-59.334 -29 -92.001 -29c-64.667 0 -107 32.667 -127 98l-34 -84h-71
l64 686h111zM219.002 276.999l-5 -54.999c-1.33301 -12 -2 -21.833 -2 -29.5s2 -17.667 6 -30s10 -23.5 18 -33.5c16.667 -22 36.667 -33 60 -33s42.666 5.33301 57.999 16s28 24.667 38 42c20 33.333 30 70.166 30 110.499s-8.5 71.333 -25.5 93s-39.167 32.5 -66.5 32.5
s-51.666 -10 -72.999 -30s-34 -47.667 -38 -83z" />
    <glyph glyph-name="c" unicode="c" horiz-adv-x="478" 
d="M196.5 475c29 16.667 60.168 25.001 93.501 25.001s60.5 -5.33301 81.5 -16s38.5 -24.667 52.5 -42c27.333 -34 41 -75.333 41 -124h-112c-2.66699 20 -9.33398 37 -20.001 51s-26.667 21 -48 21c-38.667 0 -68 -21 -88 -63c-15.333 -32 -23 -68.5 -23 -109.5
s8 -71.5 24 -91.5s36.5 -30 61.5 -30s44.167 7.16699 57.5 21.5s21.333 33.166 24 56.499h110c-5.33301 -54.667 -25.333 -98.667 -60 -132c-38 -37.333 -85.667 -56 -143 -56c-53.333 0 -97 20 -131 60c-36 42.667 -54 97 -54 163c0 77.333 20.333 144 61 200
c19.333 27.333 43.5 49.333 72.5 66z" />
    <glyph glyph-name="d" unicode="d" horiz-adv-x="555" 
d="M375 77c-32.667 -60.667 -76.668 -90.999 -132.001 -90.999c-51.333 0 -93.666 20.333 -126.999 61c-34 41.333 -51 95.666 -51 162.999c0 72 18.667 136.667 56 194c42.667 64 97 96 163 96c54.667 0 93.667 -24 117 -72l25 258h111l-65 -686h-90zM361.499 363.001
c-17 18 -37 27.001 -60 27.001s-42.333 -5.5 -58 -16.5s-28.167 -24.833 -37.5 -41.5c-19.333 -32 -29 -67.833 -29 -107.5s8.5 -71 25.5 -94s39.5 -34.5 67.5 -34.5c24.667 0 48 10.333 70 31c22.667 21.333 36 48.666 40 81.999l6 62c0.666992 3.33301 1 6.33301 1 9v7
c0 32.667 -8.5 58 -25.5 76z" />
    <glyph glyph-name="e" unicode="e" horiz-adv-x="478" 
d="M170 213c-0.666992 -3.33301 -0.999023 -6.66699 -0.999023 -10v-10c0 -32.667 7.16699 -59 21.5 -79s33.5 -30 57.5 -30c48.667 0 78.334 20.333 89.001 61h111c-10.667 -46.667 -34.667 -84.667 -72 -114c-37.333 -30 -80.333 -45 -129 -45
c-52.667 0 -96.334 20 -131.001 60c-35.333 40.667 -53 94.667 -53 162c0 76 20.333 142.667 61 200c43.333 61.333 100.333 92 171 92c55.333 0 97.666 -20 126.999 -60c27.333 -36 41 -82.667 41 -140c0 -27.333 -3.66699 -56.333 -11 -87h-282zM215.001 370.999
c-18.667 -21.333 -31 -48.332 -37 -80.999h183c0.666992 3.33301 1 6.66602 1 9.99902v17c0 8 -1.16699 17.5 -3.5 28.5s-6.5 20.833 -12.5 29.5c-12.667 18.667 -33 28 -61 28s-51.333 -10.667 -70 -32z" />
    <glyph glyph-name="f" unicode="f" horiz-adv-x="331" 
d="M360 589c-16.667 6 -31.499 8.99902 -44.499 8.99902s-25 -4.16699 -36 -12.5s-17.5 -23.166 -19.5 -44.499l-5 -54h80l-8 -82h-80l-37 -405h-110l37 405h-64l8 82h64l6 55c4.66699 50 21.667 88.667 51 116c25.333 24 57.666 36 96.999 36c28.667 0 59 -3.66699 91 -11z
" />
    <glyph glyph-name="g" unicode="g" horiz-adv-x="526" 
d="M139 200c-28 28 -42.002 63.335 -42.002 106.002c0 58 21.667 105.333 65 142c40.667 34.667 88 52 142 52c38 0 72.667 -9.33301 104 -28c8 38 26 69 54 93c26.667 23.333 57.334 35 92.001 35l-16 -117c-51.333 0 -79.666 -18.333 -84.999 -55
c17.333 -26 26 -54 26 -84s-6 -56.833 -18 -80.5s-27.667 -43.834 -47 -60.501c-41.333 -34.667 -89 -52 -143 -52c-27.333 0 -53 4.66699 -77 14c-26.667 -10.667 -40 -27.667 -40 -51c0 -26.667 21 -40 63 -40h145c94 0 141 -34.333 141 -103
c0 -65.333 -30.333 -120 -91 -164c-54 -39.333 -115 -59 -183 -59c-70.667 0 -127 15.333 -169 46c-38 28 -57 64.333 -57 109c0 47.333 21.333 81.666 64 102.999c12 6 24.333 10 37 12c-29.333 22 -44 47.833 -44 77.5s8.16699 53 24.5 70s34.5 28.5 54.5 34.5z
M139.498 -31.498c-18.333 -13 -27.5 -30.667 -27.5 -53s11 -39.5 33 -51.5s53 -18 93 -18c38 0 72 9.33301 102 28c35.333 20.667 53 47.667 53 81c0 10 -3.33301 18 -10 24s-16.334 9 -29.001 9h-149c-25.333 0 -47.166 -6.5 -65.499 -19.5zM368.998 337.002
c0 52 -25.667 78 -77 78c-27.333 0 -48.5 -9.66699 -63.5 -29s-22.5 -42 -22.5 -68c0 -54 25 -81 75 -81c29.333 0 51.333 10 66 30s22 43.333 22 70z" />
    <glyph glyph-name="h" unicode="h" horiz-adv-x="563" 
d="M231 410c35.333 60 83.3291 90 143.996 90c52.667 0 91.667 -20 117 -60c22.667 -36 31.334 -88 26.001 -156l-26 -284h-110l26 284c3.33301 35.333 -1.66699 61.833 -15 79.5s-33.166 26.5 -59.499 26.5s-50.666 -11.833 -72.999 -35.5s-37.166 -60.167 -44.499 -109.5
v-3l-23 -242h-110l64 686h111z" />
    <glyph glyph-name="i" unicode="i" horiz-adv-x="298" 
d="M139 488h109l-46 -488h-109zM139 643c2.66699 21.333 10.501 38.5 23.501 51.5s30.167 19.5 51.5 19.5s37.166 -6.5 47.499 -19.5s14.5 -30.5 12.5 -52.5c-1.33301 -21.333 -8.66602 -38.333 -21.999 -51s-30.666 -19 -51.999 -19c-20.667 0 -36.334 6.33301 -47.001 19
s-15.334 30 -14.001 52z" />
    <glyph glyph-name="j" unicode="j" horiz-adv-x="303" 
d="M158 591c-10.667 12.667 -15.166 29.833 -13.499 51.5s9.16699 39 22.5 52s30.666 19.5 51.999 19.5s37.333 -6.5 48 -19.5s14.667 -30.167 12 -51.5c-1.33301 -22 -8.5 -39.333 -21.5 -52s-30.167 -19 -51.5 -19s-37.333 6.33301 -48 19zM-75.999 -116.001
c32 -19.333 61.001 -28.999 87.001 -28.999s45.333 6.66699 58 20s20.667 36.666 24 69.999l51 544h110l-52 -546c-7.33301 -70 -25.5 -120 -54.5 -150s-66.833 -45 -113.5 -45c-38.667 0 -79.334 10.333 -122.001 31z" />
    <glyph glyph-name="k" unicode="k" horiz-adv-x="518" 
d="M262 235l-51 -43l-18 -192h-110l64 686h111l-35 -367l185 168h149l-211 -180l175 -307h-133z" />
    <glyph glyph-name="l" unicode="l" 
d="M147 686h111l-65 -686h-110z" />
    <glyph glyph-name="m" unicode="m" horiz-adv-x="855" 
d="M511 396c34.667 69.333 87.667 104.002 159 104.002c52 0 90.667 -20 116 -60c22.667 -36 31.334 -88 26.001 -156l-26 -284h-111l26 284c3.33301 35.333 -1.66699 61.833 -15 79.5s-34 26.5 -62 26.5s-52.333 -13.833 -73 -41.5s-33.667 -70.834 -39 -129.501l-20 -219
h-110l26 284c4 35.333 -0.833008 61.833 -14.5 79.5s-34.5 26.5 -62.5 26.5s-53.333 -14.333 -76 -43s-36.667 -72.334 -42 -131.001l-20 -216h-110l46 487h96c0.666992 -14 1.16699 -27.833 1.5 -41.5s0.833008 -27.167 1.5 -40.5c35.333 63.333 84.333 95 147 95
c36.667 0 66.167 -9.33301 88.5 -28s38.166 -44 47.499 -76z" />
    <glyph glyph-name="n" unicode="n" horiz-adv-x="563" 
d="M228 405c35.333 63.333 84.332 95.001 146.999 95.001c52.667 0 91.667 -20 117 -60c22.667 -36 31.334 -88 26.001 -156l-26 -284h-110l26 284c4 35.333 -0.833008 61.833 -14.5 79.5s-34.5 26.5 -62.5 26.5s-53.333 -14.333 -76 -43s-36.667 -72.334 -42 -131.001
l-20 -216h-110l46 487h96z" />
    <glyph glyph-name="o" unicode="o" horiz-adv-x="511" 
d="M314 500c30 0 57.501 -5.16797 82.501 -15.501s46.167 -26.166 63.5 -47.499c37.333 -45.333 52 -110.333 44 -195c-7.33301 -81.333 -34 -145.333 -80 -192c-42.667 -42.667 -95 -64 -157 -64c-62.667 0 -111.334 21.333 -146.001 64
c-37.333 45.333 -52 109.333 -44 192c7.33301 84 34 149 80 195c42 42 94.333 63 157 63zM378.001 356.499c-15.333 25 -38.501 37.5 -69.501 37.5s-57.667 -12.5 -80 -37.5s-36.166 -62.833 -41.499 -113.5s0 -88.5 16 -113.5s39.333 -37.5 70 -37.5s57.167 12.5 79.5 37.5
s36 62.833 41 113.5s-0.166992 88.5 -15.5 113.5z" />
    <glyph glyph-name="p" unicode="p" horiz-adv-x="550" 
d="M224 421c30.667 52.667 74.666 79 131.999 79c53.333 0 97.333 -22.667 132 -68c36.667 -48.667 51.334 -111.667 44.001 -189c-7.33301 -78 -34 -141 -80 -189c-43.333 -45.333 -91.5 -68 -144.5 -68s-90.167 17 -111.5 51l-26 -274h-110l69 724h90
c2 -31.333 3.66699 -53.333 5 -66zM210.999 196l-1.00195 -5c-1.33301 -30 6.66699 -53.333 24 -70s38 -25 62 -25c29.333 0 55.333 12 78 36c26.667 28 42.334 65 47.001 111s-1.83301 82 -19.5 108s-41.5 39 -71.5 39s-55.167 -9.66699 -75.5 -29s-32.166 -47 -35.499 -83
z" />
    <glyph glyph-name="q" unicode="q" horiz-adv-x="551" 
d="M374 63c-24.667 -51.333 -63.6641 -77 -116.997 -77c-56.667 0 -102.334 22.667 -137.001 68c-36.667 48.667 -51.334 111.667 -44.001 189s33.666 140.333 78.999 189c41.333 45.333 89.333 68 144 68c27.333 0 51.833 -7.16699 73.5 -21.5s38.167 -36.5 49.5 -66.5
l32 75h71l-53 -561c-2.66699 -30 -1.33398 -49 3.99902 -57c8.66699 -13.333 24 -24 46 -32l-39 -89c-49.333 14 -83.166 35.667 -101.499 65s-24.833 70 -19.5 122zM375.003 360c-16.667 20 -39.832 29.999 -69.499 29.999s-55.834 -13 -78.501 -39
s-36.334 -62 -41.001 -108c-4.66699 -45.333 3.66602 -82.333 24.999 -111c18.667 -24 42.667 -36 72 -36c24.667 0 47.334 8.66699 68.001 26c20.667 18.667 32.334 43.334 35.001 74.001l8 80c4 36 -2.33301 64 -19 84z" />
    <glyph glyph-name="r" unicode="r" horiz-adv-x="377" 
d="M382 367c-13.333 3.33301 -29.333 5 -48 5c-70.667 0 -111 -53 -121 -159l-20 -213h-110l46 488h110l-9 -97c16 36 35.167 62.5 57.5 79.5s45.833 25.5 70.5 25.5c12 0 24.333 -2.33301 37 -7z" />
    <glyph glyph-name="s" unicode="s" horiz-adv-x="474" 
d="M420 458.5c28 -27.667 40.3301 -62.4971 36.9971 -104.497h-103c0 15.333 -5.66699 27.666 -17 36.999s-28.333 14 -51 14s-40.667 -4.83301 -54 -14.5s-20.666 -21.167 -21.999 -34.5c-2.66699 -22.667 12.333 -39.334 45 -50.001l102 -44
c32 -12.667 56.333 -28.834 73 -48.501s23.834 -42.167 21.501 -67.5s-8.83301 -47.166 -19.5 -65.499s-25 -34.5 -43 -48.5c-38.667 -30.667 -87 -46 -145 -46s-103.667 14.167 -137 42.5s-47.666 68.5 -42.999 120.5h102c-2 -23.333 4.16699 -40.333 18.5 -51
s34.166 -16 59.499 -16s45.333 5.33301 60 16s22.834 23.167 24.501 37.5s-1.5 25.166 -9.5 32.499s-21 14.333 -39 21l-93 39c-68 28 -98.667 72.667 -92 134c4 42 23.667 75.333 59 100c36.667 25.333 83.167 38 139.5 38s98.5 -13.833 126.5 -41.5z" />
    <glyph glyph-name="t" unicode="t" horiz-adv-x="357" 
d="M332 12c-40.667 -17.333 -72.666 -26 -95.999 -26s-43.333 3 -60 9s-31 15 -43 27c-26 26.667 -36.333 64.667 -31 114l25 270h-60l8 81h60l12 127h110l-12 -127h117l-8 -81h-118l-24 -266c-4 -38.667 11 -58 45 -58c17.333 0 39.666 5.33301 66.999 16z" />
    <glyph glyph-name="u" unicode="u" horiz-adv-x="566" 
d="M386 86c-33.333 -63.333 -80.3311 -95 -140.998 -95c-78 0 -126 33.333 -144 100c-6.66699 23.333 -8.33398 52 -5.00098 86l30 311h109l-29 -298c-2.66699 -31.333 2.16602 -54.666 14.499 -69.999s32 -23 59 -23s52.833 13.167 77.5 39.5s39.667 66.166 45 119.499
l22 232h110l-45 -488h-111z" />
    <glyph glyph-name="v" unicode="v" horiz-adv-x="468" 
d="M183 487l62 -366l133 366h126l-208 -487h-123l-116 487h126z" />
    <glyph glyph-name="w" unicode="w" horiz-adv-x="685" 
d="M171 487l54 -344l112 316h100l52 -319l120 347h110l-190 -487h-108l-53 287l-104 -287h-108l-99 487h114z" />
    <glyph glyph-name="x" unicode="x" horiz-adv-x="503" 
d="M488 0h-134l-92 153l-114 -153h-135l194 242l-148 246h136l90 -154l115 154h134l-193 -246z" />
    <glyph glyph-name="y" unicode="y" horiz-adv-x="456" 
d="M187 487l70 -346.999l123 347h112l-224 -574c-23.333 -58.667 -48.666 -100.834 -75.999 -126.501s-60.333 -38.5 -99 -38.5s-77 10.667 -115 32l11 107c29.333 -21.333 59.666 -32 90.999 -32c38 0 69.333 32.667 94 98l18 47l-130 487h125z" />
    <glyph glyph-name="z" unicode="z" horiz-adv-x="447" 
d="M61 99l250 289h-224l10 99h345l-10 -99l-243 -289h217l-10 -99h-345z" />
    <glyph glyph-name="braceleft" unicode="{" horiz-adv-x="356" 
d="M337 -158c-79.333 0 -137.004 23.998 -173.004 71.998c-33.333 42.667 -46.333 103.334 -39 182.001l8 91c3.33301 28 3.33301 47 0 57s-10.666 15 -21.999 15h-24l12 124h23c12 0 20.333 5 25 15s8.33398 29 11.001 57l9 92c7.33301 77.333 31.666 138 72.999 182
c44.667 47.333 107.334 71 188.001 71l-11 -111c-44 0 -77.167 -11.5 -99.5 -34.5s-36.166 -59.5 -41.499 -109.5l-9 -96c-6 -61.333 -30.333 -103.333 -73 -126l1 -5c16 -9.33301 28.833 -24.5 38.5 -45.5s12.834 -47.5 9.50098 -79.5l-9 -96
c-5.33301 -49.333 1.16699 -85.666 19.5 -108.999s49.5 -35 93.5 -35z" />
    <glyph glyph-name="bar" unicode="|" 
d="M157 773h109l-85 -895h-110z" />
    <glyph glyph-name="braceright" unicode="}" horiz-adv-x="412" 
d="M210 323c-31.333 19.333 -47.6641 52.668 -48.9971 100.001v13c0 3.33301 0.333008 7.66602 1 12.999l9 96c1.33301 10.667 2 18.334 2 23.001v13c-1.33301 37.333 -11.166 64.666 -29.499 81.999s-46.833 26 -85.5 26l10 111c70.667 0 124.667 -19 162 -57
c33.333 -34 50.666 -83.667 51.999 -149v-23c0 -8 -0.666992 -16.333 -2 -25l-8 -91c-1.33301 -13.333 -2 -25.833 -2 -37.5s1.66699 -20.334 5 -26.001s9.66602 -8.5 18.999 -8.5h23l-11 -124h-23c-12 0 -20.333 -5 -25 -15s-8.33398 -29 -11.001 -57l-9 -92
c-12.667 -121.333 -63.334 -199.666 -152.001 -234.999c-30.667 -12 -67 -18 -109 -18l11 111c44 0 77.333 11.5 100 34.5s36.334 59.5 41.001 109.5l9 96c3.33301 32 11.666 58.5 24.999 79.5s29 36.167 47 45.5v5z" />
    <glyph glyph-name="asciitilde" unicode="~" horiz-adv-x="518" 
d="M192 263c-22 0 -42.998 -20.333 -62.998 -61l-55 35c15.333 44 33.166 78.833 53.499 104.5s45.833 38.5 76.5 38.5c20.667 0 46.667 -7 78 -21c49.333 -22 81.666 -33 96.999 -33c24.667 0 45.667 18.667 63 56l56 -42c-32.667 -86 -79 -129 -139 -129
c-22 0 -51.667 9.33301 -89 28l-48 18c-10.667 4 -20.667 6 -30 6z" />
    <glyph glyph-name="sterling" unicode="&#xa3;" horiz-adv-x="545" 
d="M31 111h27.999c22.667 0 38.834 7 48.501 21s16.167 35.667 19.5 65l8 85h-74l7 82h74l8 81c7.33301 72.667 29.666 127.334 66.999 164.001s82.333 55 135 55c106 0 160.333 -59 163 -177h-108c-1.33301 21.333 -7.16602 37.833 -17.499 49.5s-25.666 17.5 -45.999 17.5
s-38.5 -8.83301 -54.5 -26.5s-25.667 -45.167 -29 -82.5l-8 -81h153l-7 -82h-153l-7 -76c-5.33301 -44.667 -19.333 -76.334 -42 -95.001h119c30 0 51.833 6 65.5 18s23.167 31.333 28.5 58h121c-10.667 -92.667 -53.667 -151 -129 -175c-26.667 -8 -58.334 -12 -95.001 -12
h-286z" />
    <glyph glyph-name="dieresis" unicode="&#xa8;" horiz-adv-x="349" 
d="M115.5 788c-11 12.667 -15.6641 28.834 -13.9971 48.501s9.16699 35.834 22.5 48.501s29.666 19 48.999 19s34.333 -6.33301 45 -19s15.167 -28.834 13.5 -48.501s-9.33398 -35.834 -23.001 -48.501s-29.834 -19 -48.501 -19s-33.5 6.33301 -44.5 19zM278.003 837
c1.33301 19.333 8.83301 35.5 22.5 48.5s30 19.5 49 19.5s33.833 -6.5 44.5 -19.5s15.167 -29.167 13.5 -48.5s-9 -35.333 -22 -48s-29 -19 -48 -19s-34.167 6.33301 -45.5 19s-16 28.667 -14 48z" />
    <glyph glyph-name="acute" unicode="&#xb4;" horiz-adv-x="324" 
d="M377 799l-264 -103l-20 76l256 132z" />
    <glyph glyph-name="Agrave" unicode="&#xc0;" horiz-adv-x="568" 
d="M280 651h138l131 -651h-117l-27 138h-216l-54 -138h-115zM271 904l231 -132l-36 -76l-245 103zM226 230h161l-54 277z" />
    <glyph glyph-name="Aacute" unicode="&#xc1;" horiz-adv-x="568" 
d="M280 651h138l131 -651h-117l-27 138h-216l-54 -138h-115zM502 799l-264 -103l-19 76l256 132zM226 230h161l-54 277z" />
    <glyph glyph-name="Acircumflex" unicode="&#xc2;" horiz-adv-x="568" 
d="M280 651h138l131 -651h-117l-27 138h-216l-54 -138h-115zM548 756l-76 -61l-111 100l-130 -100l-63 61l205 161zM226 230h161l-54 277z" />
    <glyph glyph-name="Atilde" unicode="&#xc3;" horiz-adv-x="568" 
d="M280 651h138l131 -651h-117l-27 138h-216l-54 -138h-115zM302 782c-22 0 -42.332 -16.666 -60.999 -49.999l-40 29c11.333 41.333 26.833 73.333 46.5 96s41.167 34 64.5 34c14.667 0 35.667 -7.66699 63 -23c13.333 -8.66699 23.833 -15 31.5 -19s15.5 -6 23.5 -6
c19.333 0 36.666 16 51.999 48l42 -34c-14 -54.667 -38.667 -93 -74 -115c-10 -6.66699 -20 -10 -30 -10c-17.333 0 -36.833 6.66699 -58.5 20s-35.5 21.666 -41.5 24.999s-12 5 -18 5zM226.001 230.001h161l-54 277z" />
    <glyph glyph-name="Adieresis" unicode="&#xc4;" horiz-adv-x="568" 
d="M280 651h138l131 -651h-117l-27 138h-216l-54 -138h-115zM226 230h161l-54 277zM221.5 769c-11 12.667 -15.6641 28.834 -13.9971 48.501s9.16699 36 22.5 49s29.666 19.5 48.999 19.5s34.333 -6.5 45 -19.5s15.167 -29.333 13.5 -49s-9.33398 -35.834 -23.001 -48.501
s-29.834 -19 -48.501 -19s-33.5 6.33301 -44.5 19zM384.003 818c1.33301 19.333 8.83301 35.666 22.5 48.999s30 20 49 20s33.833 -6.66699 44.5 -20s15.167 -29.666 13.5 -48.999s-9 -35.333 -22 -48s-29 -19 -48 -19s-34.167 6.33301 -45.5 19s-16 28.667 -14 48z" />
    <glyph glyph-name="Egrave" unicode="&#xc8;" horiz-adv-x="531" 
d="M143 651h379l-10 -105h-269l-16 -167h252l-10 -106h-252l-16 -167h269l-9 -106h-379zM256 904l231 -132l-36 -76l-244 103z" />
    <glyph glyph-name="Eacute" unicode="&#xc9;" horiz-adv-x="531" 
d="M82 0h379l9 106h-269l16 167h252l10 106h-252l16 167h269l10 105h-379zM488 799l-264 -103l-20 76l256 132z" />
    <glyph glyph-name="Ecircumflex" unicode="&#xca;" horiz-adv-x="531" 
d="M153 651h379l-11 -105h-269l-15 -167h252l-11 -106h-252l-15 -167h269l-9 -106h-379zM543 756l-77 -61l-110 100l-130 -100l-63 61l204 161z" />
    <glyph glyph-name="Edieresis" unicode="&#xcb;" horiz-adv-x="531" 
d="M143 651h379l-10 -105h-269l-16 -167h252l-10 -106h-252l-16 -167h269l-9 -106h-379zM208.5 769c-11 12.667 -15.6641 28.834 -13.9971 48.501s9.16699 36 22.5 49s29.666 19.5 48.999 19.5s34.333 -6.5 45 -19.5s15.167 -29.333 13.5 -49
s-9.33398 -35.834 -23.001 -48.501s-29.834 -19 -48.501 -19s-33.5 6.33301 -44.5 19zM371.003 818c1.33301 19.333 8.83301 35.666 22.5 48.999s30 20 49 20s34 -6.66699 45 -20s15.167 -29.666 12.5 -48.999c-1.33301 -19.333 -8.5 -35.333 -21.5 -48s-29 -19 -48 -19
s-34.167 6.33301 -45.5 19s-16 28.667 -14 48z" />
    <glyph glyph-name="Igrave" unicode="&#xcc;" 
d="M144 651h110l-61 -651h-110zM121 904l231 -132l-36 -76l-244 103z" />
    <glyph glyph-name="Iacute" unicode="&#xcd;" 
d="M83 0h110l61 651h-110zM353 799l-264 -103l-19 76l255 132z" />
    <glyph glyph-name="Icircumflex" unicode="&#xce;" 
d="M144 651h110l-61 -651h-110zM400 756l-77 -61l-110 100l-130 -100l-63 61l204 161z" />
    <glyph glyph-name="Idieresis" unicode="&#xcf;" 
d="M148 651h110l-61 -651h-110zM67 817c1.33301 20 8.5 36.5 21.5 49.5s29.167 19.5 48.5 19.5s34.5 -6.5 45.5 -19.5s15.5 -29.167 13.5 -48.5c-1.33301 -20 -8.83301 -36.333 -22.5 -49s-30.167 -19 -49.5 -19c-18.667 0 -33.5 6.33301 -44.5 19s-15.167 28.667 -12.5 48z
M243 818c1.33301 19.333 8.83105 35.666 22.498 48.999s29.834 20 48.501 20c19.333 0 34.333 -6.66699 45 -20s15 -29.666 13 -48.999c-1.33301 -19.333 -8.66602 -35.333 -21.999 -48s-29.333 -19 -48 -19c-19.333 0 -34.5 6.33301 -45.5 19s-15.5 28.667 -13.5 48z" />
    <glyph glyph-name="Ntilde" unicode="&#xd1;" horiz-adv-x="651" 
d="M142 651l-61 -651h110l44 472l220 -472h111l61 651h-110l-43 -456l-212 456h-120zM340 782c-21.333 0 -41.6641 -16.667 -60.9971 -50l-40 29c11.333 41.333 26.833 73.333 46.5 96s41.167 34 64.5 34c14.667 0 35.667 -7.66699 63 -23
c25.333 -16.667 43.666 -25 54.999 -25c19.333 0 36.666 16 51.999 48l42 -34c-14.667 -56 -39.334 -94.333 -74.001 -115c-10 -6.66699 -20.167 -10 -30.5 -10s-20.5 2.33301 -30.5 7s-22.5 11.5 -37.5 20.5s-25.5 15 -31.5 18s-12 4.5 -18 4.5z" />
    <glyph glyph-name="Ograve" unicode="&#xd2;" horiz-adv-x="618" 
d="M387 664c81.333 0 143 -28.334 185 -85.001c44.667 -58.667 61.667 -143 51 -253c-10 -110.667 -43 -196 -99 -256c-52 -56 -119 -84 -201 -84c-80.667 0 -142.334 28.667 -185.001 86c-43.333 58.667 -59.666 143.334 -48.999 254.001c10 110.667 42.667 195.667 98 255
c51.333 55.333 118 83 200 83zM483.5 494.999c-24.333 40 -59.8311 59.998 -106.498 59.998s-85.834 -20.167 -117.501 -60.5s-51 -97.166 -58 -170.499s1.5 -129.666 25.5 -168.999s59.5 -59 106.5 -59s86.167 19.833 117.5 59.5s50.666 96.167 57.999 169.5
s-1.16699 130 -25.5 170zM307.002 903.997l231 -132l-36 -76l-244 103z" />
    <glyph glyph-name="Oacute" unicode="&#xd3;" horiz-adv-x="618" 
d="M379 664c-126 0 -214.336 -62.665 -265.003 -187.998c-16.667 -42.667 -27.667 -92.334 -33 -149.001s-3.66602 -106.334 5.00098 -149.001s23.334 -78 44.001 -106c42.667 -57.333 104.334 -86 185.001 -86c82 0 149 28 201 84c56 60 89 145.333 99 256
c10.667 110 -6.33301 194.333 -51 253c-42 56.667 -103.667 85 -185 85zM251.497 494.502c31.667 40.333 70.832 60.502 117.499 60.502s82.167 -20 106.5 -60s32.833 -96.667 25.5 -170s-26.666 -129.833 -57.999 -169.5s-70.5 -59.5 -117.5 -59.5s-82.5 19.667 -106.5 59
s-32.5 95.666 -25.5 168.999s26.333 130.166 58 170.499zM529.995 799.004l-264 -103l-19 76l256 132z" />
    <glyph glyph-name="Ocircumflex" unicode="&#xd4;" horiz-adv-x="618" 
d="M387 664c81.333 0 143 -28.334 185 -85.001c44.667 -58.667 61.667 -143 51 -253c-10 -110.667 -43 -196 -99 -256c-52 -56 -119 -84 -201 -84c-80.667 0 -142.334 28.667 -185.001 86c-43.333 58.667 -59.666 143.334 -48.999 254.001c10 110.667 42.667 195.667 98 255
c51.333 55.333 118 83 200 83zM483.5 494.999c-24.333 40 -59.8311 59.998 -106.498 59.998s-85.834 -20.167 -117.501 -60.5s-51 -97.166 -58 -170.499s1.5 -129.666 25.5 -168.999s59.5 -59 106.5 -59s86.167 19.833 117.5 59.5s50.666 96.167 57.999 169.5
s-1.16699 130 -25.5 170zM586.002 755.997l-77 -61l-110 100l-131 -100l-63 61l205 161z" />
    <glyph glyph-name="Otilde" unicode="&#xd5;" horiz-adv-x="618" 
d="M386 664c-39.333 0 -75.832 -6.83301 -109.499 -20.5s-63.5 -34.5 -89.5 -62.5c-55.333 -59.333 -88 -144.333 -98 -255c-10.667 -109.333 5.66602 -194 48.999 -254c41.333 -57.333 103 -86 185 -86s149 28 201 84c56 60 89 145.333 99 256
c10.667 110 -6.33301 194.333 -51 253c-42 56.667 -104 85 -186 85zM259.501 495c31 40 69.9971 60 116.997 60s82.667 -20 107 -60s32.833 -96.667 25.5 -170s-26.666 -129.833 -57.999 -169.5s-70.666 -59.5 -117.999 -59.5s-82.666 19.667 -105.999 59
s-31.5 95.833 -24.5 169.5s26 130.5 57 170.5zM338.998 782c-21.333 0 -41.332 -16.667 -59.999 -50l-41 29c11.333 41.333 26.833 73.333 46.5 96s41.167 34 64.5 34c14.667 0 32.334 -6 53.001 -18l42 -24c7.33301 -4 15 -6 23 -6c19.333 0 36.666 16 51.999 48l42 -34
c-14.667 -56 -39 -94.333 -73 -115c-10.667 -6.66699 -21.334 -10 -32.001 -10c-17.333 0 -40.333 9.33301 -69 28c-24.667 14.667 -40.667 22 -48 22z" />
    <glyph glyph-name="Odieresis" unicode="&#xd6;" horiz-adv-x="618" 
d="M387 664c81.333 0 143 -28.334 185 -85.001c44.667 -58.667 61.667 -143 51 -253c-10 -110.667 -43 -196 -99 -256c-52 -56 -119 -84 -201 -84c-80.667 0 -142.334 28.667 -185.001 86c-43.333 58.667 -59.666 143.334 -48.999 254.001c10 110.667 42.667 195.667 98 255
c51.333 55.333 118 83 200 83zM483.5 494.999c-24.333 40 -59.8311 59.998 -106.498 59.998s-85.834 -20.167 -117.501 -60.5s-51 -97.166 -58 -170.499s1.5 -129.666 25.5 -168.999s59.5 -59 106.5 -59s86.167 19.833 117.5 59.5s50.666 96.167 57.999 169.5
s-1.16699 130 -25.5 170zM260.502 768.997c-11 12.667 -15.6641 28.834 -13.9971 48.501s9.16699 36 22.5 49s29.666 19.5 48.999 19.5s34.333 -6.5 45 -19.5s15.167 -29.333 13.5 -49s-9.33398 -35.834 -23.001 -48.501s-29.834 -19 -48.501 -19s-33.5 6.33301 -44.5 19z
M423.005 817.997c1.33301 19.333 8.83301 35.666 22.5 48.999s30 20 49 20s34 -6.66699 45 -20s15.167 -29.666 12.5 -48.999c-1.33301 -19.333 -8.5 -35.333 -21.5 -48s-29 -19 -48 -19s-34.167 6.33301 -45.5 19s-16 28.667 -14 48z" />
    <glyph glyph-name="Ugrave" unicode="&#xd9;" horiz-adv-x="624" 
d="M256 651l-38.999 -404c-7.33301 -75.333 14 -122.333 64 -141c15.333 -5.33301 32.333 -8 51 -8c38 0 70.167 11.5 96.5 34.5s42.166 61.167 47.499 114.5l39 404h109l-38 -404c-8 -83.333 -35 -147.666 -81 -192.999s-106.833 -68 -182.5 -68s-132.167 22.667 -169.5 68
s-52.333 109.666 -45 192.999l39 404h109zM306.001 904l231 -132l-36 -76l-244 103z" />
    <glyph glyph-name="Uacute" unicode="&#xda;" horiz-adv-x="624" 
d="M147 651l-39.002 -404.001c-7.33301 -83.333 7.66699 -147.666 45 -192.999s93.833 -68 169.5 -68s136.5 22.667 182.5 68s73 109.666 81 192.999l38 404h-109l-39 -404c-5.33301 -53.333 -21.166 -91.5 -47.499 -114.5s-58.5 -34.5 -96.5 -34.5
c-61.333 0 -98.666 27 -111.999 81c-4.66699 18.667 -5.66699 41.334 -3 68.001l39 404h-109zM536.998 798.999l-264 -103l-19 76l256 132z" />
    <glyph glyph-name="Ucircumflex" unicode="&#xdb;" horiz-adv-x="624" 
d="M256 651l-38.999 -404c-7.33301 -75.333 14 -122.333 64 -141c15.333 -5.33301 32.333 -8 51 -8c38 0 70.167 11.5 96.5 34.5s42.166 61.167 47.499 114.5l39 404h109l-38 -404c-8 -83.333 -35 -147.666 -81 -192.999s-106.833 -68 -182.5 -68s-132.167 22.667 -169.5 68
s-52.333 109.666 -45 192.999l39 404h109zM586.001 756l-77 -61l-110 100l-130 -100l-63 61l204 161z" />
    <glyph glyph-name="Udieresis" unicode="&#xdc;" horiz-adv-x="624" 
d="M256 651l-38.999 -404c-7.33301 -75.333 14 -122.333 64 -141c15.333 -5.33301 32.333 -8 51 -8c38 0 70.167 11.5 96.5 34.5s42.166 61.167 47.499 114.5l39 404h109l-38 -404c-8 -83.333 -35 -147.666 -81 -192.999s-106.833 -68 -182.5 -68s-132.167 22.667 -169.5 68
s-52.333 109.666 -45 192.999l39 404h109zM261.501 769c-11 12.667 -15.666 28.833 -13.999 48.5s9.16699 36 22.5 49s29.666 19.5 48.999 19.5s34.5 -6.5 45.5 -19.5s15.833 -29.5 14.5 -49.5c-2.66699 -19.333 -10.667 -35.333 -24 -48s-29.5 -19 -48.5 -19
s-34 6.33301 -45 19zM425.002 817.999c1.33301 19.333 8.66699 35.666 22 48.999s29.5 20 48.5 20s34 -6.66699 45 -20s15.667 -29.666 14 -48.999s-9.16699 -35.333 -22.5 -48s-29.5 -19 -48.5 -19s-34 6.33301 -45 19s-15.5 28.667 -13.5 48z" />
    <glyph glyph-name="agrave" unicode="&#xe0;" horiz-adv-x="529" 
d="M260 285c36 0 75.002 -6.00195 117.002 -18.002l5 46c3.33301 34 -0.166992 58.833 -10.5 74.5s-29.333 23.5 -57 23.5s-49.334 -6.16699 -65.001 -18.5s-24.834 -29.166 -27.501 -50.499h-120c5.33301 55.333 26.833 95.5 64.5 120.5s87 37.5 148 37.5
s107.333 -15.5 139 -46.5s44.5 -79.167 38.5 -144.5l-29 -309h-96c-0.666992 10.667 -1 21.334 -1 32.001s-0.333008 21.667 -1 33c-34.667 -52.667 -80 -79 -136 -79c-57.333 0 -100.333 15.667 -129 47c-26.667 29.333 -38 66.5 -34 111.5s23.167 79.667 57.5 104
s79.833 36.5 136.5 36.5zM244.002 766.998l230 -132l-36 -76l-244 103zM370.002 188.998c-32 10.667 -62 16 -90 16c-60.667 0 -93 -20.667 -97 -62c-1.33301 -17.333 4.16699 -32.333 16.5 -45s29 -19 50 -19s37.667 2.83301 50 8.5s23.5 13.5 33.5 23.5
c20.667 20.667 33 46.667 37 78z" />
    <glyph glyph-name="aacute" unicode="&#xe1;" horiz-adv-x="529" 
d="M260 285c36 0 75.002 -6.00195 117.002 -18.002l5 46c3.33301 34 -0.166992 58.833 -10.5 74.5s-29.333 23.5 -57 23.5s-49.334 -6.16699 -65.001 -18.5s-24.834 -29.166 -27.501 -50.499h-120c5.33301 55.333 26.833 95.5 64.5 120.5s87 37.5 148 37.5
s107.333 -15.5 139 -46.5s44.5 -79.167 38.5 -144.5l-29 -309h-96c-0.666992 10.667 -1 21.334 -1 32.001s-0.333008 21.667 -1 33c-34.667 -52.667 -80 -79 -136 -79c-57.333 0 -100.333 15.667 -129 47c-26.667 29.333 -38 66.5 -34 111.5s23.167 79.667 57.5 104
s79.833 36.5 136.5 36.5zM475.002 661.998l-264 -103l-19 76l256 132zM370.002 188.998c-32 10.667 -62 16 -90 16c-60.667 0 -93 -20.667 -97 -62c-1.33301 -17.333 4.16699 -32.333 16.5 -45s29 -19 50 -19s37.667 2.83301 50 8.5s23.5 13.5 33.5 23.5
c20.667 20.667 33 46.667 37 78z" />
    <glyph glyph-name="acircumflex" unicode="&#xe2;" horiz-adv-x="529" 
d="M260 285c36 0 75.002 -6.00195 117.002 -18.002l5 46c3.33301 34 -0.166992 58.833 -10.5 74.5s-29.333 23.5 -57 23.5s-49.334 -6.16699 -65.001 -18.5s-24.834 -29.166 -27.501 -50.499h-120c5.33301 55.333 26.833 95.5 64.5 120.5s87 37.5 148 37.5
s107.333 -15.5 139 -46.5s44.5 -79.167 38.5 -144.5l-29 -309h-96c-0.666992 10.667 -1 21.334 -1 32.001s-0.333008 21.667 -1 33c-34.667 -52.667 -80 -79 -136 -79c-57.333 0 -100.333 15.667 -129 47c-26.667 29.333 -38 66.5 -34 111.5s23.167 79.667 57.5 104
s79.833 36.5 136.5 36.5zM522.002 618.998l-76 -61l-111 100l-130 -100l-63 61l205 161zM370.002 188.998c-32 10.667 -62 16 -90 16c-60.667 0 -93 -20.667 -97 -62c-1.33301 -17.333 4.16699 -32.333 16.5 -45s29 -19 50 -19s37.667 2.83301 50 8.5s23.5 13.5 33.5 23.5
c20.667 20.667 33 46.667 37 78z" />
    <glyph glyph-name="atilde" unicode="&#xe3;" horiz-adv-x="529" 
d="M260 285c36 0 75.002 -6.00195 117.002 -18.002l5 46c3.33301 34 -0.166992 58.833 -10.5 74.5s-29.333 23.5 -57 23.5s-49.334 -6.16699 -65.001 -18.5s-24.834 -29.166 -27.501 -50.499h-120c5.33301 55.333 26.833 95.5 64.5 120.5s87 37.5 148 37.5
s107.333 -15.5 139 -46.5s44.5 -79.167 38.5 -144.5l-29 -309h-96c-0.666992 10.667 -1 21.334 -1 32.001s-0.333008 21.667 -1 33c-34.667 -52.667 -80 -79 -136 -79c-57.333 0 -100.333 15.667 -129 47c-26.667 29.333 -38 66.5 -34 111.5s23.167 79.667 57.5 104
s79.833 36.5 136.5 36.5zM276.002 644.998c-22 0 -42.3311 -16.667 -60.998 -50l-40 29c11.333 42 26.833 74.333 46.5 97s41.167 34 64.5 34c16 0 33.833 -6.16699 53.5 -18.5s33.334 -20.5 41.001 -24.5s15.5 -6 23.5 -6c19.333 0 36.666 16.333 51.999 49l42 -34
c-14.667 -55.333 -39.334 -94.333 -74.001 -117c-10 -6 -20.333 -9 -31 -9c-14.667 0 -33.334 6.66699 -56.001 20l-43 25c-6 3.33301 -12 5 -18 5zM370.004 188.998c-32 10.667 -62 16 -90 16c-60.667 0 -93 -20.667 -97 -62c-1.33301 -17.333 4.16699 -32.333 16.5 -45
s29 -19 50 -19s37.667 2.83301 50 8.5s23.5 13.5 33.5 23.5c20.667 20.667 33 46.667 37 78z" />
    <glyph glyph-name="adieresis" unicode="&#xe4;" horiz-adv-x="529" 
d="M260 285c36 0 75.002 -6.00195 117.002 -18.002l5 46c3.33301 34 -0.166992 58.833 -10.5 74.5s-29.333 23.5 -57 23.5s-49.334 -6.16699 -65.001 -18.5s-24.834 -29.166 -27.501 -50.499h-120c5.33301 55.333 26.833 95.5 64.5 120.5s87 37.5 148 37.5
s107.333 -15.5 139 -46.5s44.5 -79.167 38.5 -144.5l-29 -309h-96c-0.666992 10.667 -1 21.334 -1 32.001s-0.333008 21.667 -1 33c-34.667 -52.667 -80 -79 -136 -79c-57.333 0 -100.333 15.667 -129 47c-26.667 29.333 -38 66.5 -34 111.5s23.167 79.667 57.5 104
s79.833 36.5 136.5 36.5zM370.002 188.998c-32 10.667 -62 16 -90 16c-60.667 0 -93 -20.667 -97 -62c-1.33301 -17.333 4.16699 -32.333 16.5 -45s29 -19 50 -19s37.667 2.83301 50 8.5s23.5 13.5 33.5 23.5c20.667 20.667 33 46.667 37 78zM198.002 632.498
c-10.667 12.333 -15.165 28.333 -13.498 48s9.16699 36 22.5 49s29.333 19.5 48 19.5s33.667 -6.5 45 -19.5s16.166 -29.333 14.499 -49s-9.5 -35.667 -23.5 -48s-30.333 -18.5 -49 -18.5s-33.334 6.16699 -44.001 18.5zM361.004 680.998
c1.33301 19.333 8.83496 35.666 22.502 48.999s30 20 49 20s33.667 -6.66699 44 -20s14.666 -29.666 12.999 -48.999s-8.83398 -35.166 -21.501 -47.499s-28.5 -18.5 -47.5 -18.5s-34.167 6.16699 -45.5 18.5s-16 28.166 -14 47.499z" />
    <glyph glyph-name="egrave" unicode="&#xe8;" horiz-adv-x="478" 
d="M182 213c-3.33301 -38 2.16504 -68.998 16.498 -92.998s37.5 -36 69.5 -36c19.333 0 36.333 5 51 15s24.667 25.333 30 46h111c-10.667 -46.667 -34.667 -84.667 -72 -114c-37.333 -30 -80.333 -45 -129 -45c-57.333 0 -103.666 23.333 -138.999 70
c-36.667 49.333 -51 111.666 -43 186.999c8 79.333 34 142.333 78 189c42.667 45.333 93.334 68 152.001 68c60.667 0 105.667 -24 135 -72c34 -54.667 41.333 -126.334 22 -215.001h-282zM222.998 778.002l231 -132l-36 -77l-244 104zM297.998 403.002
c-28.667 0 -52.333 -10.667 -71 -32s-31 -48.333 -37 -81h183c4.66699 51.333 -7 86 -35 104c-10.667 6 -24 9 -40 9z" />
    <glyph glyph-name="eacute" unicode="&#xe9;" horiz-adv-x="478" 
d="M464 213c3.33301 14.667 6.33496 31.999 9.00195 51.999c6 66 -4.33301 120.333 -31 163c-29.333 48 -74.333 72 -135 72c-58.667 0 -109.334 -22.667 -152.001 -68c-44 -46.667 -70 -109.667 -78 -189c-8 -75.333 6.33301 -137.666 43 -186.999
c35.333 -46.667 81.666 -70 138.999 -70c48.667 0 91.667 15 129 45c37.333 29.333 61.333 67.333 72 114h-111c-5.33301 -20.667 -15.333 -36 -30 -46s-31.667 -15 -51 -15c-32 0 -55.167 12 -69.5 36s-19.833 55 -16.5 93h282zM454.002 672.999l-264 -104l-19 77l256 132z
M373.002 289.999h-183.001c6 32.667 18.333 59.667 37 81s42.667 32 72 32s49.833 -10.833 61.5 -32.5s15.834 -48.5 12.501 -80.5z" />
    <glyph glyph-name="ecircumflex" unicode="&#xea;" horiz-adv-x="478" 
d="M274 84c42.667 0 69.999 20.334 81.999 61.001h110c-10.667 -46 -34.334 -84 -71.001 -114c-37.333 -30 -80.666 -45 -129.999 -45c-57.333 0 -103.666 23.333 -138.999 70c-36.667 49.333 -51 111.666 -43 186.999c8 79.333 34 142.333 78 189
c42.667 45.333 93.334 68 152.001 68c61.333 0 106.666 -24 135.999 -72c33.333 -53.333 40.333 -125 21 -215h-282c-3.33301 -38 2.16699 -69 16.5 -93s37.5 -36 69.5 -36zM505.999 629.001l-77 -61l-110 101l-130 -101l-63 61l204 162zM304.999 403.001
c-29.333 0 -53.333 -10.667 -72 -32s-31 -48.333 -37 -81h183c4.66699 52 -7 86.667 -35 104c-10 6 -23 9 -39 9z" />
    <glyph glyph-name="edieresis" unicode="&#xeb;" horiz-adv-x="478" 
d="M182 213c-3.33301 -38 2.16504 -68.998 16.498 -92.998s37.5 -36 69.5 -36c19.333 0 36.333 5 51 15s24.667 25.333 30 46h111c-10.667 -46.667 -34.667 -84.667 -72 -114c-37.333 -30 -80.333 -45 -129 -45c-57.333 0 -103.666 23.333 -138.999 70
c-36.667 49.333 -51 111.666 -43 186.999c8 79.333 34 142.333 78 189c42.667 45.333 93.334 68 152.001 68c60.667 0 105.667 -24 135 -72c34 -54.667 41.333 -126.334 22 -215.001h-282zM297.998 403.002c-28.667 0 -52.333 -10.667 -71 -32s-31 -48.333 -37 -81h183
c4.66699 51.333 -7 86 -35 104c-10.667 6 -24 9 -40 9zM175.499 632.502c-11 12.333 -15.667 28.333 -14 48s9.16699 36 22.5 49s29.5 19.5 48.5 19.5s34 -6.5 45 -19.5s15.667 -29.333 14 -49s-9.5 -35.667 -23.5 -48s-30.167 -18.5 -48.5 -18.5s-33 6.16699 -44 18.5z
M337.999 681.002c1.33301 19.333 8.83496 35.666 22.502 48.999s30 20 49 20s33.667 -6.66699 44 -20s14.666 -29.666 12.999 -48.999s-8.83398 -35.166 -21.501 -47.499s-28.5 -18.5 -47.5 -18.5s-34.167 6.16699 -45.5 18.5s-16 28.166 -14 47.499z" />
    <glyph glyph-name="igrave" unicode="&#xec;" horiz-adv-x="298" 
d="M139 488h109l-46 -488h-109zM118 767l231 -132l-36 -76l-244 103z" />
    <glyph glyph-name="iacute" unicode="&#xed;" horiz-adv-x="298" 
d="M93 0h109l46 488h-109zM349 662l-264 -103l-19 76l256 132z" />
    <glyph glyph-name="icircumflex" unicode="&#xee;" horiz-adv-x="298" 
d="M139 488h109l-46 -488h-109zM395 619l-76 -61l-111 100l-130 -100l-63 61l205 161z" />
    <glyph glyph-name="idieresis" unicode="&#xef;" horiz-adv-x="298" 
d="M141 488h109l-46 -488h-109zM73 632.5c-10.667 12.333 -15.165 28.333 -13.498 48s9.16699 36 22.5 49s29.666 19.5 48.999 19.5s34.333 -6.5 45 -19.5s15.167 -29.333 13.5 -49s-9.33398 -35.667 -23.001 -48s-30 -18.5 -49 -18.5s-33.833 6.16699 -44.5 18.5z
M236.002 681c1.33301 19.333 8.83301 35.666 22.5 48.999s30 20 49 20s33.833 -6.66699 44.5 -20s15.167 -29.666 13.5 -48.999s-9 -35.166 -22 -47.499s-29 -18.5 -48 -18.5s-34.167 6.16699 -45.5 18.5s-16 28.166 -14 47.499z" />
    <glyph glyph-name="ntilde" unicode="&#xf1;" horiz-adv-x="563" 
d="M375 500c-62.667 0 -111.669 -31.668 -147.002 -95.001l-4 82h-95l-46 -487h110l20 216c5.33301 58.667 19.333 102.334 42 131.001s48 43 76 43s48.667 -8.83301 62 -26.5s18.333 -44.167 15 -79.5l-26 -284h110l26 284c8.66699 103.333 -15.666 170 -72.999 200
c-19.333 10.667 -42.666 16 -69.999 16zM284.998 644.999c-21.333 0 -41.3311 -16.668 -59.998 -50.001l-41 29c11.333 42 26.833 74.333 46.5 97s41.167 34 64.5 34c16 0 34 -6.16699 54 -18.5s33.833 -20.5 41.5 -24.5s15.167 -6 22.5 -6
c19.333 0 36.666 16.333 51.999 49l42 -34c-14.667 -56.667 -39 -95.667 -73 -117c-10.667 -6 -21.167 -9 -31.5 -9s-20.5 2.33301 -30.5 7s-22.333 11.334 -37 20.001c-24.667 15.333 -41.334 23 -50.001 23z" />
    <glyph glyph-name="ograve" unicode="&#xf2;" horiz-adv-x="511" 
d="M314 500c30 0 57.5 -5.16797 82.5 -15.501s46.167 -26.166 63.5 -47.499c37.333 -45.333 52 -110.333 44 -195c-7.33301 -81.333 -34.333 -145.333 -81 -192c-42.667 -42.667 -94.667 -64 -156 -64c-63.333 0 -112.333 21.333 -147 64c-36.667 46 -51 110 -43 192
c7.33301 84 34 149 80 195c42 42 94.333 63 157 63zM378 356.499c-15.333 25 -38.501 37.5 -69.501 37.5s-57.667 -12.5 -80 -37.5s-36.166 -62.833 -41.499 -113.5s0 -88.5 16 -113.5s39.333 -37.5 70 -37.5s57.167 12.5 79.5 37.5s36 62.833 41 113.5
s-0.166992 88.5 -15.5 113.5zM237.999 766.999l231 -132l-36 -76l-244 103z" />
    <glyph glyph-name="oacute" unicode="&#xf3;" horiz-adv-x="511" 
d="M314 500c-29.333 0 -57.5 -5.16797 -84.5 -15.501s-51.167 -26.166 -72.5 -47.499c-46 -46 -72.667 -111 -80 -195c-8 -82 6.33301 -146 43 -192c34.667 -42.667 83.667 -64 147 -64c61.333 0 113.333 21.333 156 64c46.667 46.667 73.667 110.667 81 192
c8 84.667 -6.66699 149.667 -44 195c-34 42 -82.667 63 -146 63zM228.5 356.499c22.333 25 49.001 37.5 80.001 37.5s54.167 -12.5 69.5 -37.5s20.5 -62.833 15.5 -113.5s-18.667 -88.5 -41 -113.5s-48.833 -37.5 -79.5 -37.5s-54 12.5 -70 37.5s-21.333 62.833 -16 113.5
s19.166 88.5 41.499 113.5zM470.001 661.999l-264 -103l-20 76l256 132z" />
    <glyph glyph-name="ocircumflex" unicode="&#xf4;" horiz-adv-x="511" 
d="M314 500c30 0 57.5 -5.16797 82.5 -15.501s46.167 -26.166 63.5 -47.499c37.333 -45.333 52 -110.333 44 -195c-7.33301 -81.333 -34.333 -145.333 -81 -192c-42.667 -42.667 -94.667 -64 -156 -64c-63.333 0 -112.333 21.333 -147 64c-36.667 46 -51 110 -43 192
c7.33301 84 34 149 80 195c42 42 94.333 63 157 63zM378 356.499c-15.333 25 -38.501 37.5 -69.501 37.5s-57.667 -12.5 -80 -37.5s-36.166 -62.833 -41.499 -113.5s0 -88.5 16 -113.5s39.333 -37.5 70 -37.5s57.167 12.5 79.5 37.5s36 62.833 41 113.5
s-0.166992 88.5 -15.5 113.5zM515.999 618.999l-77 -61l-110 100l-130 -100l-63 61l204 161z" />
    <glyph glyph-name="otilde" unicode="&#xf5;" horiz-adv-x="511" 
d="M314 500c-29.333 0 -57.5 -5.16797 -84.5 -15.501s-51.167 -26.166 -72.5 -47.499c-46 -46 -72.667 -111 -80 -195c-8 -82 6.33301 -146 43 -192c34.667 -42.667 83.667 -64 147 -64c62 0 114.333 21.333 157 64c46 46.667 72.667 110.667 80 192
c8 84.667 -6.66699 149.667 -44 195c-34 42 -82.667 63 -146 63zM228.5 356.499c22.333 25 49.001 37.5 80.001 37.5s54.167 -12.5 69.5 -37.5s20.5 -62.833 15.5 -113.5s-18.667 -88.5 -41 -113.5s-48.833 -37.5 -79.5 -37.5s-54 12.5 -70 37.5s-21.333 62.833 -16 113.5
s19.166 88.5 41.499 113.5zM269.001 644.999c-21.333 0 -41.3311 -16.668 -59.998 -50.001l-41 29c11.333 42 26.833 74.333 46.5 97s41.167 34 64.5 34c16 0 34 -6.16699 54 -18.5s33.833 -20.5 41.5 -24.5s15.167 -6 22.5 -6c19.333 0 36.666 16.333 51.999 49l42 -34
c-14.667 -56.667 -39 -95.667 -73 -117c-10.667 -6 -21.167 -9 -31.5 -9s-20.5 2.33301 -30.5 7s-22.333 11.334 -37 20.001c-24.667 15.333 -41.334 23 -50.001 23z" />
    <glyph glyph-name="odieresis" unicode="&#xf6;" horiz-adv-x="511" 
d="M314 500c30 0 57.5 -5.16797 82.5 -15.501s46.167 -26.166 63.5 -47.499c37.333 -45.333 52 -110.333 44 -195c-7.33301 -81.333 -34 -145.333 -80 -192c-42.667 -42.667 -95 -64 -157 -64c-63.333 0 -112.333 21.333 -147 64c-36.667 46 -51 110 -43 192
c7.33301 84 34 149 80 195c42 42 94.333 63 157 63zM378 356.499c-15.333 25 -38.501 37.5 -69.501 37.5s-57.667 -12.5 -80 -37.5s-36.166 -62.833 -41.499 -113.5s0 -88.5 16 -113.5s39.333 -37.5 70 -37.5s57.167 12.5 79.5 37.5s36 62.833 41 113.5
s-0.166992 88.5 -15.5 113.5zM191.499 632.499c-11 12.333 -15.666 28.333 -13.999 48s9.16699 36 22.5 49s29.666 19.5 48.999 19.5s34.333 -6.5 45 -19.5s15.167 -29.333 13.5 -49s-9.16699 -35.667 -22.5 -48s-29.5 -18.5 -48.5 -18.5s-34 6.16699 -45 18.5zM355 680.999
c1.33301 19.333 8.66602 35.666 21.999 48.999s29.5 20 48.5 20s34 -6.66699 45 -20s15.667 -29.666 14 -48.999s-9.16699 -35.166 -22.5 -47.499s-29.5 -18.5 -48.5 -18.5s-34.167 6.16699 -45.5 18.5s-15.666 28.166 -12.999 47.499z" />
    <glyph glyph-name="ugrave" unicode="&#xf9;" horiz-adv-x="566" 
d="M386 86c-33.333 -63.333 -80.3311 -95 -140.998 -95c-78 0 -126 33.333 -144 100c-6.66699 23.333 -8.33398 52 -5.00098 86l30 311h109l-29 -298c-2.66699 -31.333 2.16602 -54.666 14.499 -69.999s32 -23 59 -23s52.833 13.167 77.5 39.5s39.667 66.166 45 119.499
l22 232h110l-45 -488h-111zM259.002 785l231 -131l-36 -77l-244 103z" />
    <glyph glyph-name="uacute" unicode="&#xfa;" horiz-adv-x="566" 
d="M249 -9c60.667 0 107.667 31.666 141 94.999l-8 -86h111l45 488h-110l-22 -232c-5.33301 -53.333 -20.333 -93.166 -45 -119.499s-50.667 -39.5 -78 -39.5c-54 0 -78.333 31 -73 93l29 298h-109l-30 -311c-6 -63.333 5.66699 -111 35 -143
c25.333 -28.667 63.333 -43 114 -43zM495 679.999l-264 -103l-20 77l256 131z" />
    <glyph glyph-name="ucircumflex" unicode="&#xfb;" horiz-adv-x="566" 
d="M386 86c-33.333 -63.333 -80.3311 -95 -140.998 -95c-78 0 -126 33.333 -144 100c-6.66699 23.333 -8.33398 52 -5.00098 86l30 311h109l-29 -298c-2.66699 -31.333 2.16602 -54.666 14.499 -69.999s32 -23 59 -23s52.833 13.167 77.5 39.5s39.667 66.166 45 119.499
l22 232h110l-45 -488h-111zM537.002 637l-77 -61l-110 100l-130 -100l-63 61l204 162z" />
    <glyph glyph-name="udieresis" unicode="&#xfc;" horiz-adv-x="566" 
d="M386 86c-33.333 -63.333 -80.3311 -95 -140.998 -95c-78 0 -126 33.333 -144 100c-6.66699 23.333 -8.33398 52 -5.00098 86l30 311h109l-29 -298c-2.66699 -31.333 2.16602 -54.666 14.499 -69.999s32 -23 59 -23s52.833 13.167 77.5 39.5s39.667 66.166 45 119.499
l22 232h110l-45 -488h-111zM210.502 632.5c-11 12.333 -15.666 28.332 -13.999 47.999s9.16699 36 22.5 49s29.666 19.5 48.999 19.5s34.5 -6.5 45.5 -19.5s15.833 -29.5 14.5 -49.5c-2.66699 -19.333 -10.667 -35.166 -24 -47.499s-29.5 -18.5 -48.5 -18.5
s-34 6.16699 -45 18.5zM374.003 680.999c1.33301 19.333 8.83301 35.666 22.5 48.999s30 20 49 20s33.833 -6.66699 44.5 -20s15.167 -29.666 13.5 -48.999s-9.16699 -35.166 -22.5 -47.499s-29.5 -18.5 -48.5 -18.5s-34 6.16699 -45 18.5s-15.5 28.166 -13.5 47.499z" />
    <glyph glyph-name="dotlessi" unicode="&#x131;" 
d="M129 488h110l-46 -488h-110z" />
    <glyph glyph-name="apostrophe" unicode="&#x2bc;" horiz-adv-x="218" 
d="M122.5 538c-11 12 -15.668 28.002 -14.001 48.002s10.334 37.167 26.001 51.5s36 21.5 61 21.5s44.333 -10.667 58 -32s18.834 -47.333 15.501 -78c-2.66699 -30.667 -15 -62.334 -37 -95.001c-22.667 -32 -50.667 -56.667 -84 -74l-76 46
c49.333 27.333 79.666 56.666 90.999 87.999c-16 4 -29.5 12 -40.5 24z" />
    <glyph glyph-name="circumflex" unicode="&#x2c6;" horiz-adv-x="423" 
d="M474 756l-77 -61l-110 100l-131 -100l-63 61l205 161z" />
    <glyph glyph-name="tilde" unicode="&#x2dc;" horiz-adv-x="358" 
d="M193 782c-22 0 -42.3311 -16.667 -60.998 -50l-40 29c11.333 41.333 26.833 73.333 46.5 96s41.167 34 64.5 34c14.667 0 35.667 -7.66699 63 -23c25.333 -16.667 43.666 -25 54.999 -25c19.333 0 36.666 16 51.999 48l42 -34c-14 -54.667 -38.667 -93 -74 -115
c-10 -6.66699 -20.167 -10 -30.5 -10s-20.5 2.33301 -30.5 7s-22.5 11.5 -37.5 20.5s-25.5 15 -31.5 18s-12 4.5 -18 4.5z" />
    <glyph glyph-name="endash" unicode="&#x2013;" horiz-adv-x="476" 
d="M83 356h378l-11 -107h-377z" />
    <glyph glyph-name="emdash" unicode="&#x2014;" horiz-adv-x="695" 
d="M83 356h597l-10 -107h-597z" />
    <glyph glyph-name="quoteleft" unicode="&#x2018;" horiz-adv-x="249" 
d="M216 396.5c-15.333 -14.333 -35.3311 -21.501 -59.998 -21.501s-43.834 10.667 -57.501 32s-18.834 47.833 -15.501 79.5s16.333 63 39 94s51.667 55.833 87 74.5l72 -48c-50 -24.667 -81.333 -54 -94 -88c16.667 -3.33301 30.5 -10.833 41.5 -22.5
s15.5 -27.667 13.5 -48s-10.667 -37.666 -26 -51.999z" />
    <glyph glyph-name="quoteright" unicode="&#x2019;" horiz-adv-x="249" 
d="M131 634c15.333 14 35.167 21 59.5 21s43.5 -10.833 57.5 -32.5s19.333 -48.5 16 -80.5s-16.666 -63.167 -39.999 -93.5s-52 -54.833 -86 -73.5l-71 47c49.333 26 80.333 55.667 93 89c-17.333 3.33301 -31.5 11 -42.5 23s-15.333 28.167 -13 48.5
s11.166 37.5 26.499 51.5z" />
    <glyph glyph-name="rupeesymbol" unicode="&#x20b9;" horiz-adv-x="546" 
d="M135 651h422l-6 -68h-163c32 -24 51 -55 57 -93h97l-7 -69h-93c-9.33301 -42 -29.5 -78 -60.5 -108s-76.167 -50.333 -135.5 -61l211 -252h-155l-206 246l6 69h64c84.667 0 136.667 35.333 156 106h-209l7 69h206c-4 28 -16.833 50.5 -38.5 67.5s-53.5 25.5 -95.5 25.5
h-63z" />
    <glyph glyph-name="minus" unicode="&#x2212;" horiz-adv-x="457" 
d="M420 356l-10 -107h-316l10 107h316z" />
    <glyph glyph-name=".null" horiz-adv-x="0" 
 />
    <glyph glyph-name="nonmarkingreturn" horiz-adv-x="533" 
 />
    <glyph glyph-name="zero.propold" horiz-adv-x="516" 
d="M327 586c64.667 0 114.002 -25.667 148.002 -77c35.333 -53.333 48.333 -127.666 39 -222.999c-9.33301 -94.667 -36.333 -168.667 -81 -222c-42.667 -52 -96.667 -78 -162 -78c-64.667 0 -114.334 26 -149.001 78c-36 54 -49.333 128 -40 222
c9.33301 95.333 36.666 169.666 81.999 222.999c44 51.333 98.333 77 163 77zM392.502 430c-14.333 30.667 -39.3311 46 -74.998 46s-63.834 -15.333 -84.501 -46s-34.334 -78.667 -41.001 -144c-10.667 -126.667 19 -190 89 -190c71.333 0 113 63.333 125 190
c5.33301 65.333 0.833008 113.333 -13.5 144z" />
    <glyph glyph-name="one.propold" horiz-adv-x="323" 
d="M294 574l-54 -574.001h-111l41 428c-32 -15.333 -63.667 -23.666 -95 -24.999l11 118c44 6 86 23.667 126 53h82z" />
    <glyph glyph-name="two.propold" horiz-adv-x="537" 
d="M328 480c-60.667 0 -95.334 -26.332 -104.001 -78.999h-122c5.33301 59.333 30 105.666 74 138.999c40 30.667 92 46 156 46c60 0 107.333 -17.333 142 -52c34 -34 48.5 -75.833 43.5 -125.5s-20.833 -88.167 -47.5 -115.5s-67.334 -48.333 -122.001 -63l-97 -26
c-48 -14 -73.333 -37 -76 -69l-1 -24h319l-10 -111h-429l9 99c7.33301 80.667 38.333 136 93 166c18.667 10 40.334 18.333 65.001 25l88 23c34 9.33301 58.167 21.333 72.5 36s22.5 33 24.5 55s-3.66699 40.167 -17 54.5s-33.666 21.5 -60.999 21.5z" />
    <glyph glyph-name="three.propold" horiz-adv-x="531" 
d="M75 399c24.667 124.667 103.33 186.999 235.997 186.999c62.667 0 111.334 -16.667 146.001 -50s49.334 -75.666 44.001 -126.999c-6.66699 -66 -42.667 -113.333 -108 -142c35.333 -15.333 61.333 -39 78 -71s23.334 -65.833 20.001 -101.5s-11.666 -66 -24.999 -91
s-30.666 -46.833 -51.999 -65.5c-45.333 -38.667 -102 -58 -170 -58c-64.667 0 -116.334 17.333 -155.001 52c-42.667 38.667 -61 93.334 -55 164.001h112c-1.33301 -40 8.33398 -68.667 29.001 -86s47.667 -26 81 -26s61.5 10.5 84.5 31.5s36.167 47.5 39.5 79.5
s-4.83398 58.667 -24.501 80s-48.834 32 -87.501 32h-60l9 96h57c33.333 0 60.333 8.16699 81 24.5s32.667 39.166 36 68.499c1.33301 25.333 -5.66699 46.333 -21 63s-37.333 25 -66 25s-53 -7.5 -73 -22.5s-33 -35.833 -39 -62.5h-117z" />
    <glyph glyph-name="four.propold" horiz-adv-x="539" 
d="M477 577l-40 -423h101l-9 -106h-102l-14 -156h-112l16 156h-297l9 92l340 437h108zM149 140h181l25 259z" />
    <glyph glyph-name="five.propold" horiz-adv-x="532" 
d="M235 318c32 8.66699 62.332 12.999 90.999 12.999s55.167 -5.16699 79.5 -15.5s44.5 -24.833 60.5 -43.5c32.667 -38 46.334 -90 41.001 -156c-6.66699 -68.667 -34 -125.167 -82 -169.5s-104.667 -66.5 -170 -66.5c-56.667 0 -103 18.333 -139 55
c-38.667 39.333 -54.667 92.333 -48 159h110c-3.33301 -34 3.33398 -59.5 20.001 -76.5s40 -25.5 70 -25.5c52 0 90.667 24.667 116 74c7.33301 14.667 11.666 31.334 12.999 50.001c3.33301 36.667 -4.5 65.167 -23.5 85.5s-50.167 30.5 -93.5 30.5h-168l62 353h347
l-12 -112h-246z" />
    <glyph glyph-name="six.propold" horiz-adv-x="549" 
d="M441 471c-2.66699 55.333 -27.6631 83.002 -74.9961 83.002c-51.333 0 -93 -28.333 -125 -85c-32.667 -58 -49 -134 -49 -228c23.333 106 82.666 159 177.999 159c55.333 0 98.666 -19.333 129.999 -58c30.667 -38.667 43.334 -88.334 38.001 -149.001
c-6.66699 -62.667 -31.334 -112.667 -74.001 -150c-43.333 -38 -96.333 -57 -159 -57c-73.333 0 -131 30.667 -173 92c-40.667 61.333 -56.334 140 -47.001 236c10.667 111.333 42.334 198 95.001 260c51.333 60 115.666 90 192.999 90c58 0 104.333 -17.667 139 -53
c33.333 -34.667 48.666 -81.334 45.999 -140.001h-117zM334.004 300.002c-28 0 -52.499 -9.33203 -73.499 -27.999s-32.833 -43.334 -35.5 -74.001c-2.66699 -28.667 4.66602 -52.667 21.999 -72c16 -18.667 38.333 -28 67 -28s53.334 9.16699 74.001 27.5s32.667 43 36 74
s-3.83398 55.5 -21.501 73.5s-40.5 27 -68.5 27z" />
    <glyph glyph-name="seven.propold" horiz-adv-x="450" 
d="M490 586l-11 -105l-325 -586h-134l347 585h-300l9 106h414z" />
    <glyph glyph-name="eight.propold" horiz-adv-x="585" 
d="M574 477c-3.33301 -32.667 -16.335 -61.666 -39.002 -86.999s-53 -41.666 -91 -48.999l3 -2c44 -20 75 -41.667 93 -65c20.667 -26 29.334 -56.167 26.001 -90.5s-11.5 -62.833 -24.5 -85.5s-30.833 -42.334 -53.5 -59.001c-49.333 -35.333 -112.666 -53 -189.999 -53
c-74.667 0 -133.334 18 -176.001 54c-42 36 -60.333 81.333 -55 136c4.66699 40.667 21 73.334 49 98.001s62 39.667 102 45c-50 27.333 -82 63.666 -96 108.999c-5.33301 17.333 -7 36.666 -5 57.999c5.33301 55.333 29.333 98.833 72 130.5s98.334 47.5 167.001 47.5
s123.5 -17.5 164.5 -52.5s58.833 -79.833 53.5 -134.5zM308.998 277.001c-34.667 -2 -64.0029 -11.499 -88.0029 -28.499s-37 -37.167 -39 -60.5c-2.66699 -26.667 8.66602 -48.667 33.999 -66c22.667 -16 55.334 -24 98.001 -24s75.834 6.33301 99.501 19
s36.334 28.167 38.001 46.5s-2.16602 33.166 -11.499 44.499s-23 21.333 -41 30zM240.995 510.002c-6.66699 -8.66699 -10.667 -19.668 -12 -33.001c-2.66699 -25.333 15 -46.333 53 -63l64 -29c28 0 53.333 8 76 24c22.667 16.667 35.167 37.334 37.5 62.001
s-6.5 44.667 -26.5 60s-47 23 -81 23c-51.333 0 -88.333 -14.667 -111 -44z" />
    <glyph glyph-name="nine.propold" horiz-adv-x="551" 
d="M332 586c36.667 0 69.6689 -9.99609 99.002 -29.9961s53 -46.333 71 -79c34.667 -64.667 47.667 -144.334 39 -239.001c-10.667 -112.667 -41.334 -200.334 -92.001 -263.001c-50.667 -63.333 -113 -95 -187 -95c-60 0 -108 19 -144 57
c-36.667 39.333 -51.667 89 -45 149h115c-1.33301 -30 5.16699 -53.167 19.5 -69.5s34.5 -24.5 60.5 -24.5s48.167 6 66.5 18s34.166 29 47.499 51c30 48 48 122 54 222c0.666992 11.333 1 22.666 1 33.999c-17.333 -74 -55 -121.667 -113 -143
c-18 -6.66699 -38.667 -10 -62 -10s-46.5 5.16699 -69.5 15.5s-42.5 24.5 -58.5 42.5c-34 39.333 -48.333 89.666 -43 150.999s30 112.333 74 153c44 40 99.667 60 167 60zM385.002 449.004c-16 20.667 -39.833 30.999 -71.5 30.999s-57 -10.333 -76 -31
s-30 -46.5 -33 -77.5s3.33301 -56.833 19 -77.5s39.167 -31 70.5 -31s56.833 10.5 76.5 31.5s31 46.833 34 77.5s-3.5 56.334 -19.5 77.001z" />
    </font>
</defs>
</svg>
