<?xml version="1.0" standalone="no"?>
<!DOCTYPE svg PUBLIC "-//W3C//DTD SVG 1.1//EN" "http://www.w3.org/Graphics/SVG/1.1/DTD/svg11.dtd" >
<svg>
<metadata>
Created by FontForge 20090914 at Fri Jul  5 04:22:09 2019
 By www-data
Copyright (c) 2011-2012, Jonathan Pinhorn (jonpinhorn.typedesign@gmail.com), with Reserved Font Names 'Karla'
</metadata>
<defs>
<font id="Karla-Bold" horiz-adv-x="304" >
  <font-face 
    font-family="Karla"
    font-weight="700"
    font-stretch="normal"
    units-per-em="1000"
    panose-1="0 0 0 0 0 0 0 0 0 0"
    ascent="800"
    descent="-200"
    x-height="486"
    cap-height="649"
    bbox="-76 -251.001 975.999 913"
    underline-thickness="50"
    underline-position="-50"
    unicode-range="U+0020-U+2212"
  />
<missing-glyph horiz-adv-x="589" 
 />
    <glyph glyph-name=".notdef" horiz-adv-x="589" 
 />
    <glyph glyph-name="space" unicode=" " horiz-adv-x="253" 
 />
    <glyph glyph-name="space" unicode="&#xa0;" horiz-adv-x="253" 
 />
    <glyph glyph-name="exclam" unicode="!" horiz-adv-x="293" 
d="M86 664h128l-14 -445h-101zM91 13c-15.333 14.667 -23 33.334 -23 56.001s7.66699 41.667 23 57s35 23 59 23s44 -7.66699 60 -23s24 -34.333 24 -57s-8 -41.334 -24 -56.001s-36 -22 -60 -22s-43.667 7.33301 -59 22z" />
    <glyph glyph-name="quotedbl" unicode="&#x22;" horiz-adv-x="383" 
d="M150 686l-16 -238h-87l-15 238h118zM351 686l-16 -238h-87l-15 238h118z" />
    <glyph glyph-name="numbersign" unicode="#" horiz-adv-x="678" 
d="M396 164h-136l-14 -131h-111l14 131h-92l7 77h93l17 158h-93l8 78h93l14 129h111l-14 -129h136l14 129h111l-14 -129h94l-9 -78h-93l-17 -158h94l-8 -77h-94l-14 -131h-111zM268 241h136l17 158h-136z" />
    <glyph glyph-name="dollar" unicode="$" horiz-adv-x="689" 
d="M475 343c50 -17.333 87.332 -39.168 111.999 -65.501s37 -61.166 37 -104.499c0 -47.333 -19.333 -88.333 -58 -123c-42.667 -36.667 -102.334 -57.667 -179.001 -63v-88h-84v90c-69.333 6.66699 -125.666 27.334 -168.999 62.001c-46 37.333 -69 88 -69 152h117
c0 -32 10.333 -56.333 31 -73s50.667 -27.334 90 -32.001v194l-50 17c-56 18.667 -99.333 41.167 -130 67.5s-46 63.166 -46 110.499s19.167 86.833 57.5 118.5s94.5 50.167 168.5 55.5v76h84v-77c64.667 -6.66699 114 -26.667 148 -60s55.667 -76.666 65 -129.999h-117
c-3.33301 20 -13.166 37.833 -29.499 53.5s-38.5 26.5 -66.5 32.5v-182zM465.999 122.998c16.667 14.667 25 32 25 52c0 38 -24 66 -72 84l-32 12v-175c36 3.33301 62.333 12.333 79 27zM230.499 531.998c-16.333 -14 -24.5 -30.333 -24.5 -49s5.33301 -33.5 16 -44.5
s27.667 -20.5 51 -28.5l30 -12v161c-32 -4 -56.167 -13 -72.5 -27z" />
    <glyph glyph-name="percent" unicode="%" horiz-adv-x="765" 
d="M198 662c18 0 35.3311 -3.16699 51.998 -9.5s31.334 -15.833 44.001 -28.5c27.333 -26 41 -63.667 41 -113c0 -48.667 -13.667 -86.667 -41 -114c-25.333 -25.333 -57.666 -38 -96.999 -38c-38 0 -69.667 12.667 -95 38c-27.333 27.333 -41 65.333 -41 114
c0 49.333 13.667 87 41 113c26 25.333 58 38 96 38zM245.998 511c0 50.667 -16.333 76 -49 76c-32 0 -48 -25.333 -48 -76c0 -51.333 16 -77 48 -77c32.667 0 49 25.667 49 77zM545.998 649h119l-439 -649h-120zM572.998 290c38 0 70 -12.667 96 -38
c27.333 -26 41 -63.667 41 -113s-13.667 -87.666 -41 -114.999c-25.333 -25.333 -57.333 -38 -96 -38s-70.667 12.667 -96 38c-27.333 27.333 -41 65.666 -41 114.999s13.667 87 41 113c26 25.333 58 38 96 38zM572.998 215c-32 0 -48 -25.502 -48 -76.502
s16 -76.5 48 -76.5c14 0 25.667 5.83301 35 17.5s14 31.334 14 59.001s-4.66699 47.334 -14 59.001s-21 17.5 -35 17.5z" />
    <glyph glyph-name="ampersand" unicode="&#x26;" horiz-adv-x="965" 
d="M764 344c-29.333 -83.333 -65.999 -152.333 -109.999 -207l17 -15c12 -10.667 23.333 -18.667 34 -24s23.834 -8 39.501 -8s29.167 5.83301 40.5 17.5s17.666 30.5 18.999 56.5h107c-1.33301 -54.667 -14.833 -98 -40.5 -130s-63.834 -48 -114.501 -48
c-32 0 -61.5 6.33301 -88.5 19s-55.5 32.667 -85.5 60c-66.667 -52.667 -140.667 -79 -222 -79c-74.667 0 -138 19 -190 57c-52 38.667 -78 86 -78 142c0 86.667 61 139.667 183 159l-16 15c-48 43.333 -72 91 -72 143c0 46 19 83.333 57 112
c40.667 30.667 94.667 46 162 46c64.667 0 117.334 -15.333 158.001 -46c37.333 -28.667 56 -64.667 56 -108s-13.833 -79.833 -41.5 -109.5s-69.834 -55.167 -126.501 -76.5l127 -115c40.667 48.667 75.667 109.667 105 183zM342.001 284
c-80 -11.333 -120.001 -42 -120.001 -92c0 -28 12.167 -51.5 36.5 -70.5s58.5 -28.5 102.5 -28.5c50.667 0 98.334 14.667 143.001 44zM465.5 428c16.333 17.333 24.499 36.833 24.499 58.5s-7.66699 39 -23 52s-36.666 19.5 -63.999 19.5s-48.5 -7.16699 -63.5 -21.5
s-22.5 -31.5 -22.5 -51.5c0 -29.333 15.667 -57.666 47 -84.999l23 -21c36 15.333 62.167 31.666 78.5 48.999z" />
    <glyph glyph-name="quotesingle" unicode="'" horiz-adv-x="180" 
d="M149 677l-16 -238h-87l-15 238h118z" />
    <glyph glyph-name="parenleft" unicode="(" horiz-adv-x="400" 
d="M282 -118c-139.333 124 -209 269.334 -209 436.001c0 168 69.667 313.333 209 436l85 -62c-57.333 -60 -100.333 -120.167 -129 -180.5s-43 -124.833 -43 -193.5s14.333 -132.834 43 -192.501s71.667 -119.5 129 -179.5z" />
    <glyph glyph-name="parenright" unicode=")" horiz-adv-x="400" 
d="M118 754c139.333 -124 209 -269.335 209 -436.002c0 -165.333 -69.667 -310.666 -209 -435.999l-86 64c58 60 101.333 119.833 130 179.5s43 123.834 43 192.501s-14.5 133.167 -43.5 193.5s-72.167 120.5 -129.5 180.5z" />
    <glyph glyph-name="asterisk" unicode="*" horiz-adv-x="409" 
d="M161 528l-111 37l30 70l99 -50l-12 119h80l-12 -119l99 52l30 -71l-109 -37l86 -82l-59 -51l-74 101l-76 -101l-57 51z" />
    <glyph glyph-name="plus" unicode="+" horiz-adv-x="544" 
d="M331 491v-194h195v-103h-195v-194h-118v194h-195v103h195v194h118z" />
    <glyph glyph-name="comma" unicode="," horiz-adv-x="253" 
d="M68.5 17.5c-13 11.667 -19.501 27.334 -19.501 47.001s7.66699 36.5 23 50.5s36.333 21 63 21s48.334 -10.333 65.001 -31s25 -46 25 -76c0 -48.667 -22 -93 -66 -133c-14 -12.667 -29.667 -23.334 -47 -32.001l-88 44c22 11.333 41.5 24 58.5 38s28.167 30.333 33.5 49
c-18.667 3.33301 -34.5 10.833 -47.5 22.5z" />
    <glyph glyph-name="hyphen" unicode="-" horiz-adv-x="373" 
d="M46 353h281v-103h-281v103z" />
    <glyph glyph-name="period" unicode="." horiz-adv-x="215" 
d="M47 13c-15.333 14.667 -23 33.334 -23 56.001s7.66699 41.667 23 57s35 23 59 23s44 -7.66699 60 -23s24 -34.333 24 -57s-8 -41.334 -24 -56.001s-36 -22 -60 -22s-43.667 7.33301 -59 22z" />
    <glyph glyph-name="slash" unicode="/" horiz-adv-x="472" 
d="M310 745h121l-258 -826h-120z" />
    <glyph glyph-name="zero" unicode="0" horiz-adv-x="633" 
d="M316 662c40 0 76.5 -6.83301 109.5 -20.5s61.167 -34.5 84.5 -62.5c50.667 -59.333 76 -144.333 76 -255s-25.333 -195.667 -76 -255c-46.667 -55.333 -111 -83 -193 -83c-82.667 0 -147.667 27.667 -195 83c-50 58 -75 143 -75 255s25 197 75 255
c47.333 55.333 112 83 194 83zM425.5 495.5c-25.667 39.667 -62 59.5 -109 59.5s-83.333 -19.833 -109 -59.5s-38.5 -96.834 -38.5 -171.501s12.833 -131.5 38.5 -170.5s62 -58.5 109 -58.5s83.333 19.5 109 58.5s38.5 95.833 38.5 170.5s-12.833 131.834 -38.5 171.501z
" />
    <glyph glyph-name="one" unicode="1" horiz-adv-x="357" 
d="M42 600c50 7.33301 94 25 132 53h89v-653h-118v512c-34 -16.667 -68.333 -25 -103 -25v113z" />
    <glyph glyph-name="two" unicode="2" horiz-adv-x="605" 
d="M178 108l371.001 -0.000976562v-108h-489v111c0 78 27.667 134.667 83 170c18.667 12 40.334 22.667 65.001 32l133 51c29.333 11.333 50.833 25.5 64.5 42.5s20.5 38.167 20.5 63.5s-9 46.5 -27 63.5s-43.667 25.5 -77 25.5s-60.833 -8 -82.5 -24
s-34.167 -39.667 -37.5 -71h-131c1.33301 63.333 25.666 113 72.999 149c43.333 32.667 101.666 49 174.999 49c67.333 0 123 -18 167 -54c44.667 -37.333 67 -83 67 -137s-13.5 -97.167 -40.5 -129.5s-68.833 -59.5 -125.5 -81.5l-135 -52
c-26 -10 -44.833 -21.167 -56.5 -33.5s-17.5 -28.166 -17.5 -47.499v-19z" />
    <glyph glyph-name="three" unicode="3" horiz-adv-x="622" 
d="M309 555c-72.667 0 -115 -27.6689 -127 -83.002h-124c6.66699 64 32.667 112.333 78 145c42.667 30 98.667 45 168 45c71.333 0 129.333 -16.667 174 -50c46.667 -34 70 -77.667 70 -131c0 -33.333 -9 -62.166 -27 -86.499s-44.667 -42.5 -80 -54.5
c39.333 -13.333 70.833 -33.166 94.5 -59.499s35.5 -56.5 35.5 -90.5s-6.16699 -63 -18.5 -87s-29.833 -44.667 -52.5 -62c-48 -36.667 -110.333 -55 -187 -55c-73.333 0 -135 18.667 -185 56c-56 40.667 -84 94.667 -84 162h126c2 -34 15.833 -60.667 41.5 -80
s59.167 -29 100.5 -29s73.5 9.16699 96.5 27.5s34.5 41.666 34.5 69.999s-10.5 50.5 -31.5 66.5s-54.167 24 -99.5 24h-86v93h74c38 0 67.667 8.16699 89 24.5s32 37.833 32 64.5s-9.16699 48.334 -27.5 65.001s-46.5 25 -84.5 25z" />
    <glyph glyph-name="four" unicode="4" horiz-adv-x="595" 
d="M468 656v-411h113v-101h-113v-144h-117v144h-329v89l332 423h114zM162 233h195v248z" />
    <glyph glyph-name="five" unicode="5" horiz-adv-x="582" 
d="M219 395c36 6 70.333 9.00098 103 9.00098c67.333 0 121 -16.167 161 -48.5s60 -78.833 60 -139.5c0 -66 -22.333 -120.333 -67 -163c-47.333 -44.667 -107 -67 -179 -67c-71.333 0 -128.333 18 -171 54c-44.667 37.333 -67.667 88.666 -69 153.999h121
c0 -34 11.333 -59 34 -75s51.667 -24 87 -24s64.5 11.5 87.5 34.5s34.5 51.833 34.5 86.5c0 66 -44.667 99 -134 99h-198l30 334h389v-108h-275z" />
    <glyph glyph-name="six" unicode="6" horiz-adv-x="607" 
d="M425 471c-3.33301 26 -12.6689 46.499 -28.002 61.499s-36.5 22.5 -63.5 22.5s-50.667 -5.83301 -71 -17.5s-37.833 -28.5 -52.5 -50.5c-29.333 -45.333 -44 -106.666 -44 -183.999c0 -28.667 1 -50.334 3 -65.001c7.33301 57.333 29 99.333 65 126
c31.333 22.667 70.333 34 117 34c60 0 109.667 -19.333 149 -58c38.667 -37.333 58 -86.666 58 -147.999s-21.667 -111 -65 -149s-100 -57 -170 -57c-81.333 0 -147.666 30.667 -198.999 92s-77 139.666 -77 234.999c0 110.667 25.667 197 77 259c50 60 118 90 204 90
c65.333 0 118 -17.333 158 -52c40.667 -35.333 62.334 -81.666 65.001 -138.999h-126zM242.497 272.499c-21.667 -19 -32.501 -44.167 -32.501 -75.5s10.833 -56.166 32.5 -74.499s48.334 -27.5 80.001 -27.5s58.5 9.16699 80.5 27.5s33 43.166 33 74.499s-11.333 57 -34 77
c-20.667 18 -47 27 -79 27s-58.833 -9.5 -80.5 -28.5z" />
    <glyph glyph-name="seven" unicode="7" horiz-adv-x="498" 
d="M480 649v-113l-277 -536h-159l297 535h-317v114h456z" />
    <glyph glyph-name="eight" unicode="8" horiz-adv-x="647" 
d="M502 609.5c48.667 -35 72.999 -79.5 72.999 -133.5c0 -32.667 -11.167 -61.834 -33.5 -87.501s-54.5 -42.167 -96.5 -49.5c55.333 -22 93.666 -44.333 114.999 -67c25.333 -26.667 38 -60 38 -100c0 -55.333 -24 -100 -72 -134c-50 -34.667 -117.667 -52 -203 -52
c-82 0 -148.333 18 -199 54c-50 34.667 -75 79.667 -75 135c0 40.667 14.167 73.5 42.5 98.5s64.5 40.167 108.5 45.5c-58 28 -97.333 64.333 -118 109c-7.33301 16.667 -11 35.667 -11 57c0 54.667 21.833 97.834 65.5 129.501s103.334 47.5 179.001 47.5
s137.834 -17.5 186.501 -52.5zM302.999 278c-60.667 -4 -101.668 -23.335 -123.001 -58.002c-6 -10 -9 -21.667 -9 -35s4 -25.666 12 -36.999s19 -21 33 -29c26.667 -16 64.167 -24 112.5 -24s85 6.5 110 19.5s37.5 29 37.5 48s-6.16699 34.333 -18.5 46
s-29.166 21.834 -50.499 30.501zM258.998 410.998l75 -29c32 0 60 8 84 24c23.333 16 35 37 35 63s-12 46.833 -36 62.5s-55.333 23.5 -94 23.5c-37.333 0 -68.333 -7 -93 -21s-37 -33.5 -37 -58.5s22 -46.5 66 -64.5z" />
    <glyph glyph-name="nine" unicode="9" horiz-adv-x="610" 
d="M293 95c101.333 0 152.003 83.332 152.003 249.999c0 18 -1.33301 37.667 -4 59c-8.66699 -52 -30.334 -91.333 -65.001 -118c-30.667 -23.333 -69.667 -35 -117 -35c-60.667 0 -110.167 19.167 -148.5 57.5s-57.5 87.5 -57.5 147.5c0 61.333 21.667 111 65 149
s99.666 57 168.999 57c78.667 0 144.334 -30 197.001 -90c53.333 -61.333 80 -140.333 80 -237c0 -167.333 -50 -275.666 -150 -324.999c-33.333 -16 -69.5 -24 -108.5 -24s-73 5 -102 15s-54.167 24 -75.5 42c-45.333 38 -68 87.667 -68 149h123
c1.33301 -30 12.166 -53.667 32.499 -71s46.166 -26 77.499 -26zM207.503 526.499c-21.667 -18.333 -32.5 -43.667 -32.5 -76s10.833 -57.5 32.5 -75.5s48.5 -27 80.5 -27c31.333 0 58 9.33301 80 28c22 20 33 45 33 75c0 30.667 -11 55.667 -33 75
c-21.333 18.667 -48 28 -80 28s-58.833 -9.16699 -80.5 -27.5z" />
    <glyph glyph-name="colon" unicode=":" horiz-adv-x="270" 
d="M74 30c-15.333 14.667 -23 33.334 -23 56.001s7.66699 41.667 23 57s35 23 59 23s44 -7.66699 60 -23s24 -34.333 24 -57s-8 -41.334 -24 -56.001s-36 -22 -60 -22s-43.667 7.33301 -59 22zM74 327c-15.333 14.667 -23 33.334 -23 56.001s7.66699 41.667 23 57
s35 23 59 23s44 -7.66699 60 -23s24 -34.333 24 -57s-8 -41.334 -24 -56.001s-36 -22 -60 -22s-43.667 7.33301 -59 22z" />
    <glyph glyph-name="semicolon" unicode=";" horiz-adv-x="308" 
d="M98.5 17.5c-13 11.667 -19.501 27.334 -19.501 47.001s7.66699 36.5 23 50.5s36.333 21 63 21s48.334 -10.333 65.001 -31s25 -46 25 -76c0 -48.667 -22 -93 -66 -133c-14 -12.667 -29.667 -23.334 -47 -32.001l-88 44c22 11.333 41.5 24 58.5 38s28.167 30.333 33.5 49
c-18.667 3.33301 -34.5 10.833 -47.5 22.5zM107.999 327c-15.333 14.667 -23 33.334 -23 56.001s7.66699 41.667 23 57s35 23 59 23s44 -7.66699 60 -23s24 -34.333 24 -57s-8 -41.334 -24 -56.001s-36 -22 -60 -22s-43.667 7.33301 -59 22z" />
    <glyph glyph-name="less" unicode="&#x3c;" horiz-adv-x="502" 
d="M457 527l-291 -205l291 -204l-78 -90l-334 241v107l334 241z" />
    <glyph glyph-name="equal" unicode="=" horiz-adv-x="506" 
d="M427 198v-103h-348v103h348zM427 408v-102h-348v102h348z" />
    <glyph glyph-name="greater" unicode="&#x3e;" horiz-adv-x="502" 
d="M123 617l334 -241v-107l-334 -241l-78 90l290 204l-290 205z" />
    <glyph glyph-name="question" unicode="?" horiz-adv-x="517" 
d="M485 481c0 -35.333 -8.66406 -64.8311 -25.9971 -88.498s-44.666 -44.834 -81.999 -63.501c-31.333 -16 -51.833 -29.667 -61.5 -41s-15.834 -21.833 -18.501 -31.5s-4 -20.834 -4 -33.501v-29h-118v40c0 60 18 102.667 54 128c12.667 9.33301 31.334 20.333 56.001 33
s42.5 25.5 53.5 38.5s16.5 29.667 16.5 50s-8.33301 37.333 -25 51s-41.334 20.5 -74.001 20.5s-58.334 -7.83301 -77.001 -23.5s-29.334 -36.167 -32.001 -61.5h-123c3.33301 58 24.666 104.5 63.999 139.5s94.5 52.5 165.5 52.5s127.333 -17.333 169 -52
s62.5 -77.667 62.5 -129zM177.503 121.002c15 14.667 34.667 22 59 22s44.5 -7.33301 60.5 -22s24 -33.334 24 -56.001s-8 -41.5 -24 -56.5s-36.167 -22.5 -60.5 -22.5s-44 7.5 -59 22.5s-22.5 33.833 -22.5 56.5s7.5 41.334 22.5 56.001z" />
    <glyph glyph-name="at" unicode="@" horiz-adv-x="1027" 
d="M609 280c0 20.667 -3.83398 37.333 -11.501 50s-20.167 19 -37.5 19s-33.666 -3.5 -48.999 -10.5s-29.333 -17.167 -42 -30.5c-29.333 -32 -44 -70 -44 -114c0 -30 7.83301 -52.833 23.5 -68.5s35.167 -23.5 58.5 -23.5s42.833 6.5 58.5 19.5s30.167 32.5 43.5 58.5v100z
M703.999 149.999c0 -34 11.668 -51.0029 35.001 -51.0029c10.667 0 22.834 3.5 36.501 10.5s26.5 18.5 38.5 34.5c28.667 37.333 43 87 43 149c0 77.333 -25.667 139.666 -77 186.999c-55.333 50.667 -128.666 76 -219.999 76c-110 0 -200 -34 -270 -102
c-69.333 -66.667 -104 -150.667 -104 -252c0 -98 33 -175.333 99 -232c69.333 -60.667 164 -91 284 -91v-97c-76 0 -144.833 11.167 -206.5 33.5s-114.5 52.666 -158.5 90.999s-77.833 83.5 -101.5 135.5s-35.5 109.833 -35.5 173.5s12.333 123.334 37 179.001
s59 103.334 103 143.001s96.167 70.334 156.5 92.001s123.666 32.5 189.999 32.5s125.166 -9.5 176.499 -28.5s95.166 -45.167 131.499 -78.5s64.5 -72.5 84.5 -117.5s30 -91.833 30 -140.5s-7 -90.834 -21 -126.501s-32.167 -65.667 -54.5 -90s-48 -42.833 -77 -55.5
s-59 -19 -90 -19s-56.5 5.83301 -76.5 17.5s-33 28.167 -39 49.5l-6 16c-13.333 -25.333 -29.5 -45.5 -48.5 -60.5s-42.5 -22.5 -70.5 -22.5s-51.833 4.66699 -71.5 14s-37.167 22 -52.5 38c-34 36.667 -51 81.334 -51 134.001c0 68.667 24 127.334 72 176.001
c46.667 48 103 72 169 72c44 0 79.167 -13.167 105.5 -39.5s39.5 -66.166 39.5 -119.499v-131z" />
    <glyph glyph-name="A" unicode="A" horiz-adv-x="626" 
d="M243 649h148l213 -649h-125l-45 140h-241l-46 -140h-125zM223 229h182l-90 279z" />
    <glyph glyph-name="B" unicode="B" horiz-adv-x="648" 
d="M93 649l262 -0.000976562c72 0 127.667 -17 167 -51c37.333 -31.333 56 -71.666 56 -120.999c0 -36.667 -10.167 -68 -30.5 -94s-48.833 -44.333 -85.5 -55c36.667 -7.33301 67 -23.833 91 -49.5s36 -58.5 36 -98.5c0 -80 -39.667 -134.667 -119 -164
c-30 -10.667 -68 -16 -114 -16h-263v649zM353 102.999c38 0 65.501 7.66797 82.501 23.001s25.5 35.666 25.5 60.999s-8.83301 45.833 -26.5 61.5s-44.834 23.5 -81.501 23.5h-142v-169h142zM211.001 375l139 0.000976562c35.333 0 62 7.66699 80 23s27 36.166 27 62.499
s-8.83301 47.333 -26.5 63s-44.167 23.5 -79.5 23.5h-140v-172z" />
    <glyph glyph-name="C" unicode="C" horiz-adv-x="634" 
d="M326 662c40 0 74.666 -4.83008 103.999 -14.4971s54.666 -23.167 75.999 -40.5c42 -34 69.333 -81.667 82 -143l-126 -23c-10.667 34 -27.167 61.5 -49.5 82.5s-50.166 31.5 -83.499 31.5c-45.333 0 -82 -19 -110 -57c-30 -41.333 -45 -98.5 -45 -171.5
s13.333 -130 40 -171s63 -61.5 109 -61.5s80.667 11.167 104 33.5s35 51.166 35 86.499h127c0 -72.667 -23.167 -128.834 -69.5 -168.501s-109.833 -59.5 -190.5 -59.5c-86 0 -154.333 30 -205 90c-51.333 61.333 -77 144.666 -77 249.999c0 106.667 26.333 190 79 250
c50.667 57.333 117.334 86 200.001 86z" />
    <glyph glyph-name="D" unicode="D" horiz-adv-x="686" 
d="M303 649c98.667 0 178.334 -29.332 239.001 -87.999c61.333 -58.667 92 -137.667 92 -237c0 -98.667 -30.667 -177.334 -92 -236.001c-60.667 -58.667 -140.334 -88 -239.001 -88h-211v649h211zM211 107.001h92c61.333 0 111 20.667 149 62c36 40 54 91.667 54 155
c0 64.667 -18 117 -54 157c-37.333 40.667 -87 61 -149 61h-92v-435z" />
    <glyph glyph-name="E" unicode="E" horiz-adv-x="586" 
d="M92 649h418v-102h-300v-171h281v-102h-281v-171h300v-103h-418v649z" />
    <glyph glyph-name="F" unicode="F" horiz-adv-x="547" 
d="M93 649h409v-102h-291v-171h266v-101h-266v-275h-118v649z" />
    <glyph glyph-name="G" unicode="G" horiz-adv-x="677" 
d="M491 103c-28 -78 -81.667 -117 -161 -117c-81.333 0 -148.333 30.667 -201 92c-54.667 63.333 -82 144.333 -82 243c0 104 29.333 187.333 88 250c56.667 60.667 129.667 91 219 91c60.667 0 111.5 -13.167 152.5 -39.5s73.167 -67.833 96.5 -124.5l-121 -28
c-35.333 56.667 -80 85 -134 85c-49.333 0 -90.333 -21 -123 -63c-34 -42.667 -51 -99.667 -51 -171c0 -67.333 15.333 -122 46 -164c30 -41.333 70 -62 120 -62c42.667 0 77.667 13.667 105 41c28 28 42 66.333 42 115v4l-146 3v76h259v-334h-96z" />
    <glyph glyph-name="H" unicode="H" horiz-adv-x="706" 
d="M211 649v-271h283v271h118v-649h-118v275h-283v-275h-118v649h118z" />
    <glyph glyph-name="I" unicode="I" 
d="M93 649h118v-649h-118v649z" />
    <glyph glyph-name="J" unicode="J" horiz-adv-x="444" 
d="M16 27v118.001c51.333 -29.333 101 -44 149 -44c28.667 0 49.5 8.33301 62.5 25s19.5 42 19.5 76v447h119v-447c0 -74.667 -18 -130.334 -54 -167.001c-32 -32.667 -76 -49 -132 -49s-110.667 13.667 -164 41z" />
    <glyph glyph-name="K" unicode="K" horiz-adv-x="654" 
d="M212 649v-267l256 267h162l-286 -292l305 -357h-153l-231 275l-53 -54v-221h-119v649h119z" />
    <glyph glyph-name="L" unicode="L" horiz-adv-x="494" 
d="M211 103h267v-103h-385v649h118v-546z" />
    <glyph glyph-name="M" unicode="M" horiz-adv-x="874" 
d="M262 649l178 -386l178 386h163v-649h-119v493l-184 -422h-77l-190 436v-507h-118v649h169z" />
    <glyph glyph-name="N" unicode="N" horiz-adv-x="717" 
d="M220 649l286 -460v460h118v-649h-120l-295 476v-476h-118v649h129z" />
    <glyph glyph-name="O" unicode="O" horiz-adv-x="683" 
d="M342 662c43.333 0 83 -7.16699 119 -21.5s67 -35.5 93 -63.5c54.667 -58.667 82 -142.667 82 -252c0 -110 -27.333 -195 -82 -255c-52 -56 -123 -84 -213 -84c-89.333 0 -160 28.667 -212 86c-54.667 59.333 -82 143.666 -82 252.999
c0 110.667 27.333 195.334 82 254.001c51.333 55.333 122.333 83 213 83zM467.5 495.5c-31 40.333 -72.833 60.5 -125.5 60.5s-94.667 -20.167 -126 -60.5s-47 -97.666 -47 -171.999s15.667 -131.333 47 -171s73.333 -59.5 126 -59.5s94.5 19.833 125.5 59.5
s46.5 96.667 46.5 171s-15.5 131.666 -46.5 171.999z" />
    <glyph glyph-name="P" unicode="P" horiz-adv-x="581" 
d="M490.5 595.5c41 -35.667 61.5 -86.667 61.5 -153s-20.5 -117.333 -61.5 -153s-98.167 -53.5 -171.5 -53.5h-110v-236h-119v649h229c73.333 0 130.5 -17.833 171.5 -53.5zM319 339c36.667 0 64.334 9.66797 83.001 29.001s28 44.166 28 74.499s-9.33301 55.333 -28 75
s-46.334 29.5 -83.001 29.5h-110v-208h110z" />
    <glyph glyph-name="Q" unicode="Q" horiz-adv-x="686" 
d="M628 -162c-27.333 -12 -56.998 -18 -88.998 -18c-64.667 0 -119.334 33.667 -164.001 101l-43 65c-86 1.33301 -154.667 30.666 -206 87.999c-52.667 60.667 -79 144.334 -79 251.001c0 110.667 27.333 195.334 82 254.001c51.333 55.333 122 83 212 83
c89.333 0 160.333 -28.333 213 -85c54.667 -58.667 82 -142.667 82 -252c0 -90 -17.333 -161.833 -52 -215.5s-81.334 -89.834 -140.001 -108.501l16 -25c16 -24.667 39.667 -37.667 71 -39c28.667 0 61 7.66699 97 23v-122zM467.502 495.5
c-31 40.333 -72.833 60.5 -125.5 60.5s-94.667 -20.167 -126 -60.5s-47 -97.666 -47 -171.999s15.667 -131.333 47 -171s73.333 -59.5 126 -59.5s94.5 19.833 125.5 59.5s46.5 96.667 46.5 171s-15.5 131.666 -46.5 171.999z" />
    <glyph glyph-name="R" unicode="R" horiz-adv-x="644" 
d="M575 450c0 -46 -13.001 -85.332 -39.001 -117.999s-63.333 -55.334 -112 -68.001l174 -264h-154l-143 253h-90v-253h-118v649h240c76.667 0 136.334 -18.333 179.001 -55c42 -35.333 63 -83.333 63 -144zM321.999 332.001c43.333 0 76 9.83301 98 29.5s33 45.667 33 78
s-10 58.333 -30 78s-50 29.5 -90 29.5h-122v-215h111z" />
    <glyph glyph-name="S" unicode="S" horiz-adv-x="638" 
d="M434 470c-10.667 56.667 -50.665 85 -119.998 85c-34 0 -60.5 -6.83301 -79.5 -20.5s-28.5 -30.167 -28.5 -49.5s6.16699 -34.5 18.5 -45.5s31.5 -21.167 57.5 -30.5l141 -55c48 -18.667 85 -42.167 111 -70.5s39 -63.833 39 -106.5c0 -58.667 -22 -105.167 -66 -139.5
s-106.667 -51.5 -188 -51.5c-72 0 -130.333 17.667 -175 53c-50 38.667 -76.333 93.334 -79 164.001h117c0 -53.333 27.667 -87 83 -101c16.667 -4.66699 38.667 -7 66 -7s52.666 6.83301 75.999 20.5s35 32 35 55s-6.33301 40.667 -19 53s-33.334 23.833 -62.001 34.5
l-129 51c-50 19.333 -88.333 42 -115 68s-40 62 -40 108c0 54 21 96.667 63 128c42.667 32.667 100.5 49 173.5 49s129.333 -16.833 169 -50.5s62.5 -80.834 68.5 -141.501h-117z" />
    <glyph glyph-name="T" unicode="T" horiz-adv-x="532" 
d="M6 649h520v-102h-201v-547h-118v547h-201v102z" />
    <glyph glyph-name="U" unicode="U" horiz-adv-x="690" 
d="M201 649v-404c0 -53.333 13.5 -91.666 40.5 -114.999s61.833 -35 104.5 -35s77.5 11.667 104.5 35s40.5 61.666 40.5 114.999v404h118v-404c0 -82.667 -23 -146.5 -69 -191.5s-110.667 -67.5 -194 -67.5s-148 22.5 -194 67.5s-69 108.833 -69 191.5v404h118z" />
    <glyph glyph-name="V" unicode="V" horiz-adv-x="607" 
d="M145 649l158 -501l160 501h124l-223 -649h-124l-220 649h125z" />
    <glyph glyph-name="W" unicode="W" horiz-adv-x="966" 
d="M152 649l143 -493l139 450h80l147 -452l152 495h133l-223 -649h-124l-122 366l-121 -366h-124l-212 649h132z" />
    <glyph glyph-name="X" unicode="X" horiz-adv-x="684" 
d="M649 0h-148l-171 230l-152 -230h-144l229 323l-230 326h145l164 -234l142 234h143l-219 -324z" />
    <glyph glyph-name="Y" unicode="Y" horiz-adv-x="604" 
d="M156 649l143 -259l150 259h139l-231 -381v-268h-118v268l-223 381h140z" />
    <glyph glyph-name="Z" unicode="Z" horiz-adv-x="629" 
d="M73 102l343 438l-343 1v108h491v-101l-342 -439l342 -1v-108h-491v102z" />
    <glyph glyph-name="bracketleft" unicode="[" horiz-adv-x="352" 
d="M93 790h247v-106h-129v-718h129v-107h-247v931z" />
    <glyph glyph-name="backslash" unicode="\" horiz-adv-x="472" 
d="M41 746h120l258 -826h-121z" />
    <glyph glyph-name="bracketright" unicode="]" horiz-adv-x="336" 
d="M243 -141h-247v107h129v718h-129v106h247v-931z" />
    <glyph glyph-name="asciicircum" unicode="^" horiz-adv-x="527" 
d="M20 218l198 385h96l197 -385h-130l-115 246l-116 -246h-130z" />
    <glyph glyph-name="underscore" unicode="_" horiz-adv-x="768" 
d="M55 -55h659v-103h-659v103z" />
    <glyph glyph-name="grave" unicode="`" horiz-adv-x="356" 
d="M66 900l267 -132l-30 -74l-279 104z" />
    <glyph glyph-name="a" unicode="a" horiz-adv-x="584" 
d="M253 284c38.667 0 83.335 -6.33301 134.002 -19v48c0 34 -6.83301 59.167 -20.5 75.5s-36 24.5 -67 24.5s-54.833 -6.16699 -71.5 -18.5s-25 -29.833 -25 -52.5h-129c0 55.333 19.5 95.333 58.5 120s93.5 37 163.5 37c100 0 164.667 -35 194 -105
c10 -24 15 -52.333 15 -85v-309h-103l-9 65c-31.333 -52.667 -79.333 -79 -144 -79c-62.667 0 -111.334 15.333 -146.001 46c-32 29.333 -48 66.5 -48 111.5s17.667 79.667 53 104s83.666 36.5 144.999 36.5zM387.001 190c-39.333 10.667 -76 15.999 -110 15.999
c-64 0 -96 -21.333 -96 -64c0 -18 7.33301 -33.5 22 -46.5s38.167 -19.5 70.5 -19.5s59 10.833 80 32.5s32.167 48.834 33.5 81.501z" />
    <glyph glyph-name="b" unicode="b" horiz-adv-x="614" 
d="M563 245c0 -76 -21.667 -138.667 -65 -188c-42 -47.333 -94.333 -71 -157 -71c-30 0 -57.5 8 -82.5 24s-44.833 40.667 -59.5 74l-29 -84h-77v686h118v-261c30.667 49.333 76.5 74 137.5 74s112 -23.333 153 -70s61.5 -108 61.5 -184zM211 273l-0.000976562 -64
c1.33301 -34 13.666 -62 36.999 -84c22 -21.333 48.833 -32 80.5 -32s58.834 13.833 81.501 41.5s34 64.167 34 109.5s-11.167 81.5 -33.5 108.5s-50.166 40.5 -83.499 40.5s-61 -11 -83 -33s-33 -51 -33 -87z" />
    <glyph glyph-name="c" unicode="c" horiz-adv-x="530" 
d="M278 499c30.667 0 58.167 -5.16797 82.5 -15.501s44.833 -23.833 61.5 -40.5c33.333 -32 53 -72.333 59 -121l-119 -3c-5.33301 21.333 -15.166 39 -29.499 53s-30.833 21 -49.5 21s-34.667 -2.83301 -48 -8.5s-25 -14.5 -35 -26.5c-22.667 -28 -34 -66.667 -34 -116
s10.667 -86.5 32 -111.5s47.166 -37.5 77.499 -37.5s52.333 7.16699 66 21.5s20.5 33.833 20.5 58.5h119c0 -53.333 -17.667 -97.666 -53 -132.999c-36 -36 -86.333 -54 -151 -54c-64 0 -117.667 23.333 -161 70c-46 50 -69 112.333 -69 187c0 78.667 23 141.667 69 189
c43.333 44.667 97.333 67 162 67z" />
    <glyph glyph-name="d" unicode="d" horiz-adv-x="614" 
d="M410 75c-30 -59.333 -76.002 -89 -138.002 -89s-114 23.667 -156 71c-43.333 49.333 -65 112 -65 188s20.667 137.667 62 185c40.667 46 91.334 69 152.001 69s106.334 -24.333 137.001 -73v260h119v-686h-97zM203.498 352.5
c-22.333 -27 -33.5029 -63.166 -33.5029 -108.499s11.333 -81.833 34 -109.5s51.334 -41.5 86.001 -41.5c28.667 0 54.334 11.333 77.001 34c23.333 23.333 35 52.666 35 87.999v63c-1.33301 34.667 -13 63 -35 85c-20 20 -46.667 30 -80 30s-61.166 -13.5 -83.499 -40.5z
" />
    <glyph glyph-name="e" unicode="e" horiz-adv-x="530" 
d="M469.5 354c8.33301 -28 12.5 -53.667 12.5 -77s-1.33301 -44.333 -4 -63h-314c1.33301 -39.333 11 -71.333 29 -96s45.333 -37 82 -37c48.667 0 77.667 21.333 87 64h119c-8 -48.667 -30.333 -87 -67 -115c-38 -29.333 -84.333 -44 -139 -44
c-64 0 -117.667 23.333 -161 70c-44.667 48.667 -67 111 -67 187c0 78 22.333 140.667 67 188c42.667 45.333 96.334 68 161.001 68c67.333 0 119.666 -23.667 156.999 -71c16.667 -21.333 29.167 -46 37.5 -74zM276 405c-33.333 0 -59.333 -10.833 -78 -32.5
s-29.667 -49.5 -33 -83.5h207c0 52.667 -16.667 88 -50 106c-12.667 6.66699 -28 10 -46 10z" />
    <glyph glyph-name="f" unicode="f" horiz-adv-x="366" 
d="M40 486h71.999v57c0 50 14.667 88.333 44 115c26.667 24 61.334 36 104.001 36c27.333 0 61 -4 101 -12l-23 -91c-18.667 6.66699 -35.5 10 -50.5 10s-28.167 -4.16699 -39.5 -12.5s-17 -23.833 -17 -46.5v-56h89v-79h-89v-407h-119v407h-72v79z" />
    <glyph glyph-name="g" unicode="g" horiz-adv-x="582" 
d="M135 199c-39.333 33.333 -59 74.999 -59 124.999c0 52.667 20.667 95.334 62 128.001c40 31.333 85.833 47 137.5 47s94.834 -9.66699 129.501 -29c4 38 20.333 68.667 49 92c28 23.333 61 35 99 35l-6 -113c-57.333 0 -87 -19 -89 -57c24.667 -30.667 37 -62 37 -94
s-5.66699 -58.833 -17 -80.5s-26.666 -39.834 -45.999 -54.501c-40 -32 -88.667 -48 -146 -48c-32.667 0 -62.334 5 -89.001 15c-26.667 -8 -40 -24 -40 -48c0 -30 25.333 -45 76 -45h163c110.667 0 166 -38.667 166 -116c0 -26 -6.5 -51.5 -19.5 -76.5
s-31.833 -47.167 -56.5 -66.5c-54.667 -42.667 -123.334 -64 -206.001 -64c-80 0 -145 16.333 -195 49c-46.667 31.333 -70 69.666 -70 114.999c0 30 9.16699 53.833 27.5 71.5s42.5 28.834 72.5 33.501c-39.333 24 -59 53.667 -59 89c0 23.333 7.33301 42.833 22 58.5
s33.667 26.834 57 33.501zM225 -11.001c-62.667 -2.66699 -94 -26.332 -94 -70.999c0 -22.667 13.167 -40.834 39.5 -54.501s57.5 -20.5 93.5 -20.5s64.167 3 84.5 9s37.5 14 51.5 24c30 20 45 44 45 72c0 12 -4.16699 21.833 -12.5 29.5s-20.5 11.5 -36.5 11.5h-171z
M355.5 391.501c-15 17 -37.833 25.5 -68.5 25.5s-54 -8.5 -70 -25.5s-24 -39 -24 -66s8 -49.167 24 -66.5s39.333 -26 70 -26s53.5 8.66699 68.5 26s22.5 39.5 22.5 66.5s-7.5 49 -22.5 66z" />
    <glyph glyph-name="h" unicode="h" horiz-adv-x="623" 
d="M211 407c33.333 61.333 81.9971 92 145.997 92s111.167 -19.667 141.5 -59s45.5 -91.333 45.5 -156v-284h-118v284c0 36 -8.66699 63.167 -26 81.5s-41.666 27.5 -72.999 27.5s-58.166 -14 -80.499 -42s-34.166 -70 -35.499 -126v-225h-118v686h118v-279z" />
    <glyph glyph-name="i" unicode="i" horiz-adv-x="328" 
d="M103 487h118v-487h-118v487zM89 643c0 21.333 6.33301 38.166 19 50.499s30.667 18.5 54 18.5c22.667 0 40.5 -6.16699 53.5 -18.5s19.5 -29.166 19.5 -50.499s-6.5 -38.166 -19.5 -50.499s-30.833 -18.5 -53.5 -18.5c-23.333 0 -41.333 6.16699 -54 18.5
s-19 29.166 -19 50.499z" />
    <glyph glyph-name="j" unicode="j" horiz-adv-x="335" 
d="M95 643c0 21.333 6.5 38.166 19.5 50.499s31 18.5 54 18.5s40.833 -6.16699 53.5 -18.5s19 -29.166 19 -50.499s-6.33301 -38.166 -19 -50.499s-30.5 -18.5 -53.5 -18.5s-41 6.16699 -54 18.5s-19.5 29.166 -19.5 50.499zM-74 -118c40 -20 74.332 -30 102.999 -30
s49.334 6.83301 62.001 20.5s19 37.5 19 71.5v544h118v-546c0 -69.333 -14.5 -118.833 -43.5 -148.5s-66.667 -44.5 -113 -44.5s-95.5 10.333 -147.5 31z" />
    <glyph glyph-name="k" unicode="k" horiz-adv-x="575" 
d="M265 237l-54 -45v-192h-118v686h118v-371l192 171h160l-215 -180l227 -306h-144z" />
    <glyph glyph-name="l" unicode="l" 
d="M93 686h118v-686h-118v686z" />
    <glyph glyph-name="m" unicode="m" horiz-adv-x="949" 
d="M525 394c31.333 70 86.3291 105 164.996 105c58 0 103 -19.667 135 -59c30.667 -37.333 46 -89.333 46 -156v-284h-119v284c0 36 -8.66699 63.167 -26 81.5s-41.666 27.5 -72.999 27.5s-57 -13.667 -77 -41s-30.667 -68.666 -32 -123.999v-228h-118v284
c0 36 -8.66699 63.167 -26 81.5s-41.666 27.5 -72.999 27.5s-58.166 -14 -80.499 -42s-34.166 -70 -35.499 -126v-225h-118v486h103l13 -84c32 64.667 83.333 97 154 97c40.667 0 74.5 -9.33301 101.5 -28s47.167 -44.334 60.5 -77.001z" />
    <glyph glyph-name="n" unicode="n" horiz-adv-x="623" 
d="M209 402c32 64.667 83.3301 97 153.997 97c60 0 105.167 -19.667 135.5 -59s45.5 -91.333 45.5 -156v-284h-118v284c0 36 -8.66699 63.167 -26 81.5s-41.666 27.5 -72.999 27.5s-58.166 -14 -80.499 -42s-34.166 -70 -35.499 -126v-225h-118v486h103z" />
    <glyph glyph-name="o" unicode="o" horiz-adv-x="566" 
d="M284 499c32.667 0 63.3311 -5.16699 91.998 -15.5s53.334 -26.166 74.001 -47.499c46 -46.667 69 -111.334 69 -194.001c0 -81.333 -23 -145.333 -69 -192c-41.333 -42.667 -96.666 -64 -165.999 -64s-125.333 21.333 -168 64c-46 46 -69 110 -69 192
c0 83.333 23 148 69 194c42 42 98 63 168 63zM370.997 358.5c-20 25.667 -47.8311 38.5 -83.498 38.5s-64.834 -12.833 -87.501 -38.5s-34 -64.167 -34 -115.5s10.167 -89.833 30.5 -115.5s48.166 -38.5 83.499 -38.5s64.333 12.833 87 38.5s34 64.167 34 115.5
s-10 89.833 -30 115.5z" />
    <glyph glyph-name="p" unicode="p" horiz-adv-x="610" 
d="M201 420c30.667 52.667 77.332 79 139.999 79c60 0 111.333 -22.667 154 -68c45.333 -48 68 -110.667 68 -188c0 -78 -23 -141 -69 -189c-42.667 -45.333 -93.667 -68 -153 -68s-102.666 17.667 -129.999 53v-276h-118v723h97zM319.998 93
c14 0 28.5 2.99902 43.5 8.99902s28.5 15.333 40.5 28c26.667 28 40 65.5 40 112.5s-11.5 83.833 -34.5 110.5s-51 40 -84 40s-60 -9.5 -81 -28.5s-32.167 -46.167 -33.5 -81.5v-87c0 -31.333 11 -56.666 33 -75.999c20.667 -18 46 -27 76 -27z" />
    <glyph glyph-name="q" unicode="q" horiz-adv-x="610" 
d="M398 63c-24 -51.333 -65.333 -77 -124 -77c-62.667 0 -115.334 22.667 -158.001 68c-46 48 -69 111 -69 189c0 76.667 22.333 139.334 67 188.001c42 45.333 93.333 68 154 68c30 0 57.833 -7.16699 83.5 -21.5s46.5 -36.5 62.5 -66.5l26 75h77v-561
c0 -28.667 3.5 -47.667 10.5 -57s14.833 -16.166 23.5 -20.499s19.334 -8.5 32.001 -12.5l-34 -86c-54.667 13.333 -93.5 34.666 -116.5 63.999s-34.5 69.666 -34.5 120.999v129zM366 363c-21.333 20 -48.499 30.001 -81.499 30.001s-61 -13.333 -84 -40
s-34.5 -63.334 -34.5 -110.001c0 -47.333 13.333 -85 40 -113c23.333 -24.667 51.666 -37 84.999 -37c27.333 0 51.333 8.33301 72 25c22 18.667 33.667 43 35 73v87c0 36.667 -10.667 65 -32 85z" />
    <glyph glyph-name="r" unicode="r" horiz-adv-x="416" 
d="M211 390c29.333 70 73.334 105 132.001 105c11.333 0 25.666 -2.33301 42.999 -7l-2 -118c-18.667 4 -37 6 -55 6c-78.667 0 -118 -54.333 -118 -163v-213h-118v487h118v-97z" />
    <glyph glyph-name="s" unicode="s" horiz-adv-x="527" 
d="M159 148c1.33301 -46 35.001 -69.001 101.001 -69.001c25.333 0 46.166 5.5 62.499 16.5s24.5 23.833 24.5 38.5s-5 26 -15 34s-25.667 15.333 -47 22l-106 38c-78.667 27.333 -118 72 -118 134c0 41.333 18.5 74.5 55.5 99.5s86.667 37.5 149 37.5
s110.333 -13.667 144 -41s51.167 -61.666 52.5 -102.999h-111c-1.33301 16 -9 28.667 -23 38s-34 14 -60 14s-46.167 -5.16699 -60.5 -15.5s-21.5 -22.166 -21.5 -35.499c0 -23.333 19.667 -40.666 59 -51.999l115 -43c38 -12.667 67.167 -28.834 87.5 -48.501
s30.5 -45.167 30.5 -76.5c0 -40 -19 -74.667 -57 -104c-39.333 -30.667 -91.333 -46 -156 -46s-116.667 14.167 -156 42.5s-59.333 68.166 -60 119.499h110z" />
    <glyph glyph-name="t" unicode="t" horiz-adv-x="395" 
d="M367 12c-44 -17.333 -78.667 -26 -104 -26s-47.5 3 -66.5 9s-35.833 15 -50.5 27c-30.667 27.333 -46 65 -46 113v272h-68v79h68v128h118v-128h132v-79h-132v-268c0 -40 19 -60 57 -60c19.333 0 44.333 5.33301 75 16z" />
    <glyph glyph-name="u" unicode="u" horiz-adv-x="627" 
d="M416 88c-30.667 -64.667 -79.9971 -96.999 -147.997 -96.999c-86 0 -142.667 33.667 -170 101c-10 23.333 -15 51.666 -15 84.999v310h118v-298c0 -32 7.66699 -55.833 23 -71.5s34.166 -23.5 56.499 -23.5s41.166 3.16699 56.499 9.5s28.666 15.833 39.999 28.5
c24.667 28.667 37.667 67 39 115v240h118v-487h-118v88z" />
    <glyph glyph-name="v" unicode="v" horiz-adv-x="519" 
d="M148 486l111 -369l112 369h136l-181 -486h-133l-181 486h136z" />
    <glyph glyph-name="w" unicode="w" horiz-adv-x="758" 
d="M136 486l98 -347l93 320h107l93 -321l99 348h118l-160 -486h-116l-90 291l-88 -291h-117l-161 486h124z" />
    <glyph glyph-name="x" unicode="x" horiz-adv-x="554" 
d="M537 0h-144l-120 156l-112 -156h-145l189 242l-189 245h145l119 -156l113 156h144l-188 -245z" />
    <glyph glyph-name="y" unicode="y" horiz-adv-x="504" 
d="M153 486l117 -350l102 350h120l-186 -574c-19.333 -58 -42.833 -99.667 -70.5 -125s-62.834 -38 -105.501 -38c-43.333 0 -86.666 10.667 -129.999 32v104c34.667 -22 69.667 -33 105 -33c23.333 0 42.5 9.33301 57.5 28s27.167 43 36.5 73l15 47l-195 486h134z" />
    <glyph glyph-name="z" unicode="z" horiz-adv-x="495" 
d="M57 96l252 294h-252v96h382v-96l-244 -294h244v-96h-382v96z" />
    <glyph glyph-name="braceleft" unicode="{" horiz-adv-x="391" 
d="M387 -156c-87.333 0 -153 23.334 -197 70.001c-40.667 43.333 -61 104 -61 182v91c0 28 -2.16699 47.167 -6.5 57.5s-13.166 15.5 -26.499 15.5h-25v119h25c13.333 0 22.166 5.16699 26.499 15.5s6.5 29.5 6.5 57.5v92c0 119.333 47 196.666 141 231.999
c32.667 12.667 71.667 19 117 19v-107c-49.333 0 -85.166 -11.833 -107.499 -35.5s-33.5 -60.5 -33.5 -110.5v-96c0 -32 -6.16699 -58.333 -18.5 -79s-28.166 -35.667 -47.499 -45v-5c19.333 -9.33301 35.166 -24.333 47.499 -45s18.5 -47 18.5 -79v-96
c0 -50 11.167 -86.833 33.5 -110.5s58.166 -35.5 107.499 -35.5v-107z" />
    <glyph glyph-name="bar" unicode="|" 
d="M93 771h118v-893h-118v893z" />
    <glyph glyph-name="braceright" unicode="}" horiz-adv-x="391" 
d="M4 -49c49.333 0 85.166 11.833 107.499 35.5s33.5 60.5 33.5 110.5v96c0 32 6.16699 58.333 18.5 79s28.166 35.667 47.499 45v5c-19.333 9.33301 -35.166 24.333 -47.499 45s-18.5 47 -18.5 79v96c0 50 -11.167 86.833 -33.5 110.5s-58.166 35.5 -107.499 35.5v107
c87.333 0 153.333 -23.667 198 -71c40 -42.667 60 -102.667 60 -180v-92c0 -28 2.16699 -47.167 6.5 -57.5s13.166 -15.5 26.499 -15.5h25v-119h-25c-13.333 0 -22.166 -5.16699 -26.499 -15.5s-6.5 -29.5 -6.5 -57.5v-91c0 -120 -47 -198 -141 -234
c-32.667 -12 -71.667 -18 -117 -18v107z" />
    <glyph glyph-name="asciitilde" unicode="~" horiz-adv-x="570" 
d="M184 265c-25.333 0 -46.666 -20.333 -63.999 -61l-63 34c11.333 43.333 27.166 77.5 47.499 102.5s47.166 37.5 80.499 37.5c22.667 0 52.334 -7 89.001 -21c57.333 -22 94 -33 110 -33c27.333 0 49 18.667 65 56l64 -41c-26.667 -84.667 -72.667 -127 -138 -127
c-22 0 -56 9.33301 -102 28c-24.667 8.66699 -43.167 15 -55.5 19s-23.5 6 -33.5 6z" />
    <glyph glyph-name="sterling" unicode="&#xa3;" horiz-adv-x="602" 
d="M22 107l32.001 -0.000976562c24.667 0 42 7 52 21s15 36 15 66v87h-83v79h83v84c0 72 18.667 126.333 56 163s86.666 55 147.999 55c112 0 176 -58.333 192 -175h-116c-3.33301 22 -11.666 38.833 -24.999 50.5s-31.5 17.5 -54.5 17.5s-42.5 -9 -58.5 -27
s-24 -46 -24 -84v-84h171v-79h-171v-79c0 -43.333 -12 -75 -36 -95h136c33.333 0 57.166 6.16699 71.499 18.5s23.166 31.833 26.499 58.5h129c-2.66699 -61.333 -20.667 -106.666 -54 -135.999c-37.333 -32 -94.666 -48 -171.999 -48h-318v107z" />
    <glyph glyph-name="dieresis" unicode="&#xa8;" horiz-adv-x="382" 
d="M43.5 788.5c-13 12.333 -19.5 28 -19.5 47s6.5 34.833 19.5 47.5s29.833 19 50.5 19s37.667 -6.33301 51 -19s20 -28.5 20 -47.5s-6.66699 -34.667 -20 -47s-30.333 -18.5 -51 -18.5s-37.5 6.16699 -50.5 18.5zM217 836c0 19.333 6.66699 35.333 20 48
s30.166 19 50.499 19s37.166 -6.33301 50.499 -19s20 -28.667 20 -48s-6.66699 -35 -20 -47s-30.166 -18 -50.499 -18s-37.166 6 -50.499 18s-20 27.667 -20 47z" />
    <glyph glyph-name="acute" unicode="&#xb4;" horiz-adv-x="356" 
d="M332 798l-279 -104l-30 74l267 132z" />
    <glyph glyph-name="Agrave" unicode="&#xc0;" horiz-adv-x="626" 
d="M243 649h148l213 -649h-125l-45 140h-241l-46 -140h-125zM205 900l267 -132l-30 -74l-279 104zM223 229h182l-90 279z" />
    <glyph glyph-name="Aacute" unicode="&#xc1;" horiz-adv-x="626" 
d="M243 649h148l213 -649h-125l-45 140h-241l-46 -140h-125zM471 798l-279 -104l-30 74l267 132zM223 229h182l-90 279z" />
    <glyph glyph-name="Acircumflex" unicode="&#xc2;" horiz-adv-x="626" 
d="M243 649h148l213 -649h-125l-45 140h-241l-46 -140h-125zM524 752l-75 -59l-133 101l-134 -101l-75 59l209 161zM223 229h182l-90 279z" />
    <glyph glyph-name="Atilde" unicode="&#xc3;" horiz-adv-x="626" 
d="M243 649h148l213 -649h-125l-45 140h-241l-46 -140h-125zM386 838c21.333 0 39 16.332 53 48.999l50 -33c-7.33301 -36 -20.5 -65.5 -39.5 -88.5s-39.167 -34.5 -60.5 -34.5c-12 0 -23.833 2.33301 -35.5 7s-26.167 11.334 -43.5 20.001c-30 15.333 -50.333 23 -61 23
c-23.333 0 -43 -16.667 -59 -50l-47 28c8 40.667 21.5 72.167 40.5 94.5s41.167 33.5 66.5 33.5c18 0 39 -6.16699 63 -18.5l48.5 -24.5c8.33301 -4 16.5 -6 24.5 -6zM223 228.999h182l-90 279z" />
    <glyph glyph-name="Adieresis" unicode="&#xc4;" horiz-adv-x="626" 
d="M243 649h148l213 -649h-125l-45 140h-241l-46 -140h-125zM223 229h182l-90 279zM168.5 767.5c-13 12.333 -19.5 28 -19.5 47s6.5 34.833 19.5 47.5s29.833 19 50.5 19s37.667 -6.33301 51 -19s20 -28.5 20 -47.5s-6.66699 -34.667 -20 -47s-30.333 -18.5 -51 -18.5
s-37.5 6.16699 -50.5 18.5zM342 815c0 19.333 6.66699 35.333 20 48s30.166 19 50.499 19s37.166 -6.33301 50.499 -19s20 -28.667 20 -48s-6.66699 -35 -20 -47s-30.166 -18 -50.499 -18s-37.166 6 -50.499 18s-20 27.667 -20 47z" />
    <glyph glyph-name="Egrave" unicode="&#xc8;" horiz-adv-x="588" 
d="M92 649h418v-102h-300v-171h281v-102h-281v-171h300v-103h-418v649zM190 900l267 -132l-30 -74l-279 104z" />
    <glyph glyph-name="Eacute" unicode="&#xc9;" horiz-adv-x="588" 
d="M92 0h418v103h-300v171h281v102h-281v171h300v102h-418v-649zM456 798l-279 -104l-30 74l267 132z" />
    <glyph glyph-name="Ecircumflex" unicode="&#xca;" horiz-adv-x="588" 
d="M102 649h418v-102h-300v-171h281v-102h-281v-171h300v-103h-418v649zM520 752l-75 -59l-133 101l-134 -101l-75 59l209 161z" />
    <glyph glyph-name="Edieresis" unicode="&#xcb;" horiz-adv-x="588" 
d="M92 649h418v-102h-300v-171h281v-102h-281v-171h300v-103h-418v649zM154.5 767.5c-13 12.333 -19.5 28 -19.5 47s6.5 34.833 19.5 47.5s29.833 19 50.5 19s37.667 -6.33301 51 -19s20 -28.5 20 -47.5s-6.66699 -34.667 -20 -47s-30.333 -18.5 -51 -18.5
s-37.5 6.16699 -50.5 18.5zM328 815c0 19.333 6.66699 35.333 20 48s30.166 19 50.499 19s37.166 -6.33301 50.499 -19s20 -28.667 20 -48s-6.66699 -35 -20 -47s-30.166 -18 -50.499 -18s-37.166 6 -50.499 18s-20 27.667 -20 47z" />
    <glyph glyph-name="Igrave" unicode="&#xcc;" 
d="M93 649h118v-649h-118v649zM41 900l267 -132l-30 -74l-279 104z" />
    <glyph glyph-name="Iacute" unicode="&#xcd;" 
d="M93 0h118v649h-118v-649zM307 798l-279 -104l-30 74l267 132z" />
    <glyph glyph-name="Icircumflex" unicode="&#xce;" 
d="M93 649h118v-649h-118v649zM361 752l-75 -59l-133 101l-134 -101l-75 59l209 161z" />
    <glyph glyph-name="Idieresis" unicode="&#xcf;" 
d="M93 649h118v-649h-118v649zM5.5 767.5c-13 12.333 -19.5 28 -19.5 47s6.5 34.833 19.5 47.5s29.833 19 50.5 19s37.667 -6.33301 51 -19s20 -28.5 20 -47.5s-6.66699 -34.667 -20 -47s-30.333 -18.5 -51 -18.5s-37.5 6.16699 -50.5 18.5zM179 815
c0 19.333 6.66699 35.333 20 48s30.166 19 50.499 19s37.166 -6.33301 50.499 -19s20 -28.667 20 -48s-6.66699 -35 -20 -47s-30.166 -18 -50.499 -18s-37.166 6 -50.499 18s-20 27.667 -20 47z" />
    <glyph glyph-name="Ntilde" unicode="&#xd1;" horiz-adv-x="720" 
d="M91 649v-649h118v476l295 -476h120v649h-118v-460l-286 460h-129zM429 838c21.333 0 39 16.332 53 48.999l50 -33c-7.33301 -36 -20.5 -65.5 -39.5 -88.5s-39.167 -34.5 -60.5 -34.5c-12 0 -23.833 2.33301 -35.5 7s-26.5 11.334 -44.5 20.001
c-29.333 15.333 -49.333 23 -60 23c-23.333 0 -43 -16.667 -59 -50l-47 28c8 40.667 21.5 72.167 40.5 94.5s41.167 33.5 66.5 33.5c18 0 39 -6.16699 63 -18.5l48.5 -24.5c8.33301 -4 16.5 -6 24.5 -6z" />
    <glyph glyph-name="Ograve" unicode="&#xd2;" horiz-adv-x="683" 
d="M342 662c43.333 0 83 -7.16699 119 -21.5s67 -35.5 93 -63.5c54.667 -58.667 82 -142.667 82 -252c0 -110 -27.333 -195 -82 -255c-52 -56 -123 -84 -213 -84c-89.333 0 -160 28.667 -212 86c-54.667 59.333 -82 143.666 -82 252.999
c0 110.667 27.333 195.334 82 254.001c51.333 55.333 122.333 83 213 83zM467.5 495.5c-31 40.333 -72.833 60.5 -125.5 60.5s-94.667 -20.167 -126 -60.5s-47 -97.666 -47 -171.999s15.667 -131.333 47 -171s73.333 -59.5 126 -59.5s94.5 19.833 125.5 59.5
s46.5 96.667 46.5 171s-15.5 131.666 -46.5 171.999zM228 900l267 -132l-30 -74l-279 104z" />
    <glyph glyph-name="Oacute" unicode="&#xd3;" horiz-adv-x="683" 
d="M342 662c-44 0 -83.999 -6.83301 -119.999 -20.5s-67 -34.5 -93 -62.5c-54.667 -58.667 -82 -143.334 -82 -254.001c0 -109.333 27.333 -193.666 82 -252.999c52 -57.333 122.667 -86 212 -86c90 0 161 28 213 84c54.667 60 82 145 82 255
c0 109.333 -27.333 193.333 -82 252c-52.667 56.667 -123.334 85 -212.001 85zM216.001 495.5c31.333 40.333 73.333 60.5 126 60.5s94.5 -20.167 125.5 -60.5s46.5 -97.666 46.5 -171.999s-15.5 -131.333 -46.5 -171s-72.833 -59.5 -125.5 -59.5s-94.667 19.833 -126 59.5
s-47 96.667 -47 171s15.667 131.666 47 171.999zM494.001 798l-279 -104l-30 74l267 132z" />
    <glyph glyph-name="Ocircumflex" unicode="&#xd4;" horiz-adv-x="683" 
d="M342 662c43.333 0 83 -7.16699 119 -21.5s67 -35.5 93 -63.5c54.667 -58.667 82 -142.667 82 -252c0 -110 -27.333 -195 -82 -255c-52 -56 -123 -84 -213 -84c-89.333 0 -160 28.667 -212 86c-54.667 59.333 -82 143.666 -82 252.999
c0 110.667 27.333 195.334 82 254.001c51.333 55.333 122.333 83 213 83zM467.5 495.5c-31 40.333 -72.833 60.5 -125.5 60.5s-94.667 -20.167 -126 -60.5s-47 -97.666 -47 -171.999s15.667 -131.333 47 -171s73.333 -59.5 126 -59.5s94.5 19.833 125.5 59.5
s46.5 96.667 46.5 171s-15.5 131.666 -46.5 171.999zM549 752l-75 -59l-133 101l-134 -101l-75 59l209 161z" />
    <glyph glyph-name="Otilde" unicode="&#xd5;" horiz-adv-x="683" 
d="M342 662c-44 0 -83.999 -6.83301 -119.999 -20.5s-67 -34.5 -93 -62.5c-54.667 -58.667 -82 -143.334 -82 -254.001c0 -109.333 27.333 -193.666 82 -252.999c52 -57.333 122.667 -86 212 -86c90 0 161 28 213 84c54.667 60 82 145 82 255
c0 109.333 -27.333 193.333 -82 252c-52.667 56.667 -123.334 85 -212.001 85zM216.001 495.5c31.333 40.333 73.333 60.5 126 60.5s94.5 -20.167 125.5 -60.5s46.5 -97.666 46.5 -171.999s-15.5 -131.333 -46.5 -171s-72.833 -59.5 -125.5 -59.5s-94.667 19.833 -126 59.5
s-47 96.667 -47 171s15.667 131.666 47 171.999zM411.001 838c21.333 0 39 16.332 53 48.999l50 -33c-7.33301 -36 -20.5 -65.5 -39.5 -88.5s-39.167 -34.5 -60.5 -34.5c-12 0 -23.833 2.33301 -35.5 7s-26.5 11.334 -44.5 20.001c-29.333 15.333 -49.333 23 -60 23
c-23.333 0 -43 -16.667 -59 -50l-47 28c8 40.667 21.5 72.167 40.5 94.5s41.167 33.5 66.5 33.5c18 0 39 -6.16699 63 -18.5l48.5 -24.5c8.33301 -4 16.5 -6 24.5 -6z" />
    <glyph glyph-name="Odieresis" unicode="&#xd6;" horiz-adv-x="683" 
d="M342 662c43.333 0 83 -7.16699 119 -21.5s67 -35.5 93 -63.5c54.667 -58.667 82 -142.667 82 -252c0 -110 -27.333 -195 -82 -255c-52 -56 -123 -84 -213 -84c-89.333 0 -160 28.667 -212 86c-54.667 59.333 -82 143.666 -82 252.999
c0 110.667 27.333 195.334 82 254.001c51.333 55.333 122.333 83 213 83zM467.5 495.5c-31 40.333 -72.833 60.5 -125.5 60.5s-94.667 -20.167 -126 -60.5s-47 -97.666 -47 -171.999s15.667 -131.333 47 -171s73.333 -59.5 126 -59.5s94.5 19.833 125.5 59.5
s46.5 96.667 46.5 171s-15.5 131.666 -46.5 171.999zM193.5 767.5c-13 12.333 -19.5 28 -19.5 47s6.5 34.833 19.5 47.5s29.833 19 50.5 19s37.667 -6.33301 51 -19s20 -28.5 20 -47.5s-6.66699 -34.667 -20 -47s-30.333 -18.5 -51 -18.5s-37.5 6.16699 -50.5 18.5zM367 815
c0 19.333 6.66699 35.333 20 48s30.166 19 50.499 19s37.166 -6.33301 50.499 -19s20 -28.667 20 -48s-6.66699 -35 -20 -47s-30.166 -18 -50.499 -18s-37.166 6 -50.499 18s-20 27.667 -20 47z" />
    <glyph glyph-name="Ugrave" unicode="&#xd9;" horiz-adv-x="690" 
d="M201 649v-404c0 -53.333 13.5 -91.666 40.5 -114.999s61.833 -35 104.5 -35s77.5 11.667 104.5 35s40.5 61.666 40.5 114.999v404h118v-404c0 -82.667 -23 -146.5 -69 -191.5s-110.667 -67.5 -194 -67.5s-148 22.5 -194 67.5s-69 108.833 -69 191.5v404h118zM233 900
l267 -132l-30 -74l-279 104z" />
    <glyph glyph-name="Uacute" unicode="&#xda;" horiz-adv-x="690" 
d="M83 649v-404c0 -82.667 23 -146.5 69 -191.5s110.667 -67.5 194 -67.5s148 22.5 194 67.5s69 108.833 69 191.5v404h-118v-404c0 -53.333 -13.5 -91.666 -40.5 -114.999s-61.833 -35 -104.5 -35s-77.5 11.667 -104.5 35s-40.5 61.666 -40.5 114.999v404h-118zM499 798
l-279 -104l-30 74l267 132z" />
    <glyph glyph-name="Ucircumflex" unicode="&#xdb;" horiz-adv-x="690" 
d="M201 649v-404c0 -53.333 13.5 -91.666 40.5 -114.999s61.833 -35 104.5 -35s77.5 11.667 104.5 35s40.5 61.666 40.5 114.999v404h118v-404c0 -82.667 -23 -146.5 -69 -191.5s-110.667 -67.5 -194 -67.5s-148 22.5 -194 67.5s-69 108.833 -69 191.5v404h118zM554 752
l-75 -59l-133 101l-134 -101l-75 59l209 161z" />
    <glyph glyph-name="Udieresis" unicode="&#xdc;" horiz-adv-x="690" 
d="M201 649v-404c0 -53.333 13.5 -91.666 40.5 -114.999s61.833 -35 104.5 -35s77.5 11.667 104.5 35s40.5 61.666 40.5 114.999v404h118v-404c0 -82.667 -23 -146.5 -69 -191.5s-110.667 -67.5 -194 -67.5s-148 22.5 -194 67.5s-69 108.833 -69 191.5v404h118zM199.5 767.5
c-13 12.333 -19.5 28 -19.5 47s6.5 34.833 19.5 47.5s29.833 19 50.5 19s37.667 -6.33301 51 -19s20 -28.5 20 -47.5s-6.66699 -34.667 -20 -47s-30.333 -18.5 -51 -18.5s-37.5 6.16699 -50.5 18.5zM373 815c0 19.333 6.66699 35.333 20 48s30.166 19 50.499 19
s37.166 -6.33301 50.499 -19s20 -28.667 20 -48s-6.66699 -35 -20 -47s-30.166 -18 -50.499 -18s-37.166 6 -50.499 18s-20 27.667 -20 47z" />
    <glyph glyph-name="agrave" unicode="&#xe0;" horiz-adv-x="585" 
d="M253 284c38.667 0 83.335 -6.33301 134.002 -19v48c0 34 -6.83301 59.167 -20.5 75.5s-36 24.5 -67 24.5s-54.833 -6.16699 -71.5 -18.5s-25 -29.833 -25 -52.5h-129c0 55.333 19.5 95.333 58.5 120s93.5 37 163.5 37c100 0 164.667 -35 194 -105
c10 -24 15 -52.333 15 -85v-309h-103l-9 65c-31.333 -52.667 -79.333 -79 -144 -79c-62.667 0 -111.334 15.333 -146.001 46c-32 29.333 -48 66.5 -48 111.5s17.667 79.667 53 104s83.666 36.5 144.999 36.5zM185.001 764l267 -132l-30 -74l-279 104zM387.001 190
c-39.333 10.667 -76 15.999 -110 15.999c-64 0 -96 -21.333 -96 -64c0 -18 7.33301 -33.5 22 -46.5s38.167 -19.5 70.5 -19.5s59 10.833 80 32.5s32.167 48.834 33.5 81.501z" />
    <glyph glyph-name="aacute" unicode="&#xe1;" horiz-adv-x="585" 
d="M253 284c38.667 0 83.335 -6.33301 134.002 -19v48c0 34 -6.83301 59.167 -20.5 75.5s-36 24.5 -67 24.5s-54.833 -6.16699 -71.5 -18.5s-25 -29.833 -25 -52.5h-129c0 55.333 19.5 95.333 58.5 120s93.5 37 163.5 37c100 0 164.667 -35 194 -105
c10 -24 15 -52.333 15 -85v-309h-103l-9 65c-31.333 -52.667 -79.333 -79 -144 -79c-62.667 0 -111.334 15.333 -146.001 46c-32 29.333 -48 66.5 -48 111.5s17.667 79.667 53 104s83.666 36.5 144.999 36.5zM451.001 662l-279 -104l-30 74l267 132zM387.001 190
c-39.333 10.667 -76 15.999 -110 15.999c-64 0 -96 -21.333 -96 -64c0 -18 7.33301 -33.5 22 -46.5s38.167 -19.5 70.5 -19.5s59 10.833 80 32.5s32.167 48.834 33.5 81.501z" />
    <glyph glyph-name="acircumflex" unicode="&#xe2;" horiz-adv-x="585" 
d="M253 284c38.667 0 83.335 -6.33301 134.002 -19v48c0 34 -6.83301 59.167 -20.5 75.5s-36 24.5 -67 24.5s-54.833 -6.16699 -71.5 -18.5s-25 -29.833 -25 -52.5h-129c0 55.333 19.5 95.333 58.5 120s93.5 37 163.5 37c100 0 164.667 -35 194 -105
c10 -24 15 -52.333 15 -85v-309h-103l-9 65c-31.333 -52.667 -79.333 -79 -144 -79c-62.667 0 -111.334 15.333 -146.001 46c-32 29.333 -48 66.5 -48 111.5s17.667 79.667 53 104s83.666 36.5 144.999 36.5zM506.001 616l-75 -59l-133 101l-134 -101l-75 59l209 161z
M387.001 190c-39.333 10.667 -76 15.999 -110 15.999c-64 0 -96 -21.333 -96 -64c0 -18 7.33301 -33.5 22 -46.5s38.167 -19.5 70.5 -19.5s59 10.833 80 32.5s32.167 48.834 33.5 81.501z" />
    <glyph glyph-name="atilde" unicode="&#xe3;" horiz-adv-x="585" 
d="M253 284c38.667 0 83.335 -6.33301 134.002 -19v48c0 34 -6.83301 59.167 -20.5 75.5s-36 24.5 -67 24.5s-54.833 -6.16699 -71.5 -18.5s-25 -29.833 -25 -52.5h-129c0 55.333 19.5 95.333 58.5 120s93.5 37 163.5 37c100 0 164.667 -35 194 -105
c10 -24 15 -52.333 15 -85v-309h-103l-9 65c-31.333 -52.667 -79.333 -79 -144 -79c-62.667 0 -111.334 15.333 -146.001 46c-32 29.333 -48 66.5 -48 111.5s17.667 79.667 53 104s83.666 36.5 144.999 36.5zM368.001 702c21.333 0 39 16.332 53 48.999l50 -33
c-7.33301 -36 -20.5 -65.5 -39.5 -88.5s-39.167 -34.5 -60.5 -34.5c-12 0 -23.833 2.33301 -35.5 7s-26.167 11.334 -43.5 20.001c-30 15.333 -50.333 23 -61 23c-23.333 0 -43 -16.667 -59 -50l-47 28c8 40.667 21.5 72.167 40.5 94.5s41.167 33.5 66.5 33.5
c18 0 39 -6.16699 63 -18.5l48.5 -24.5c8.33301 -4 16.5 -6 24.5 -6zM387.001 189.999c-39.333 10.667 -76 15.999 -110 15.999c-64 0 -96 -21.333 -96 -64c0 -18 7.33301 -33.5 22 -46.5s38.167 -19.5 70.5 -19.5s59 10.833 80 32.5s32.167 48.834 33.5 81.501z" />
    <glyph glyph-name="adieresis" unicode="&#xe4;" horiz-adv-x="585" 
d="M253 284c38.667 0 83.335 -6.33301 134.002 -19v48c0 34 -6.83301 59.167 -20.5 75.5s-36 24.5 -67 24.5s-54.833 -6.16699 -71.5 -18.5s-25 -29.833 -25 -52.5h-129c0 55.333 19.5 95.333 58.5 120s93.5 37 163.5 37c100 0 164.667 -35 194 -105
c10 -24 15 -52.333 15 -85v-309h-103l-9 65c-31.333 -52.667 -79.333 -79 -144 -79c-62.667 0 -111.334 15.333 -146.001 46c-32 29.333 -48 66.5 -48 111.5s17.667 79.667 53 104s83.666 36.5 144.999 36.5zM387.001 190c-39.333 10.667 -76 15.999 -110 15.999
c-64 0 -96 -21.333 -96 -64c0 -18 7.33301 -33.5 22 -46.5s38.167 -19.5 70.5 -19.5s59 10.833 80 32.5s32.167 48.834 33.5 81.501zM150.501 631.499c-13 12.333 -19.5 28 -19.5 47s6.5 34.833 19.5 47.5s29.833 19 50.5 19s37.667 -6.33301 51 -19s20 -28.5 20 -47.5
s-6.66699 -34.667 -20 -47s-30.333 -18.5 -51 -18.5s-37.5 6.16699 -50.5 18.5zM324.001 678.999c0 19.333 6.66699 35.333 20 48s30.166 19 50.499 19s37.166 -6.33301 50.499 -19s20 -28.667 20 -48s-6.66699 -35 -20 -47s-30.166 -18 -50.499 -18s-37.166 6 -50.499 18
s-20 27.667 -20 47z" />
    <glyph glyph-name="egrave" unicode="&#xe8;" horiz-adv-x="530" 
d="M469.5 354c8.33301 -28 12.5 -53.667 12.5 -77s-1.33301 -44.333 -4 -63h-314c1.33301 -39.333 11 -71.333 29 -96s45.333 -37 82 -37c48.667 0 77.667 21.333 87 64h119c-8 -48.667 -30.333 -87 -67 -115c-38 -29.333 -84.333 -44 -139 -44
c-64 0 -117.667 23.333 -161 70c-44.667 48.667 -67 111 -67 187c0 78 22.333 140.667 67 188c42.667 45.333 96.334 68 161.001 68c67.333 0 119.666 -23.667 156.999 -71c16.667 -21.333 29.167 -46 37.5 -74zM154 774l267 -132l-30 -74l-279 104zM276 405
c-33.333 0 -59.333 -10.833 -78 -32.5s-29.667 -49.5 -33 -83.5h207c0 52.667 -16.667 88 -50 106c-12.667 6.66699 -28 10 -46 10z" />
    <glyph glyph-name="eacute" unicode="&#xe9;" horiz-adv-x="530" 
d="M362 145c-9.33301 -42.667 -38.333 -64 -87 -64c-36.667 0 -64 12.333 -82 37s-27.667 56.667 -29 96h314c2.66699 18.667 4 39.667 4 63s-4.16699 49 -12.5 77s-20.833 52.667 -37.5 74c-37.333 47.333 -89.666 71 -156.999 71c-64.667 0 -118.334 -22.667 -161.001 -68
c-44.667 -47.333 -67 -110 -67 -188c0 -76 22.333 -138.333 67 -187c43.333 -46.667 97 -70 161 -70c54.667 0 101 14.667 139 44c36.667 28 59 66.333 67 115h-119zM420 672l-279 -104l-30 74l267 132zM372 289h-206.999c3.33301 34 14.333 61.833 33 83.5
s44.667 32.5 78 32.5s57.666 -10.833 72.999 -32.5s23 -49.5 23 -83.5z" />
    <glyph glyph-name="ecircumflex" unicode="&#xea;" horiz-adv-x="530" 
d="M476.5 354c8.33301 -28 12.5 -53.667 12.5 -77s-1.33301 -44.333 -4 -63h-314c1.33301 -39.333 11 -71.333 29 -96s45.333 -37 82 -37c48.667 0 77.667 21.333 87 64h119c-8 -48.667 -30.333 -87 -67 -115c-38 -29.333 -84.333 -44 -139 -44
c-64 0 -117.667 23.333 -161 70c-44.667 48.667 -67 111 -67 187c0 78 22.333 140.667 67 188c42.667 45.333 96.334 68 161.001 68c67.333 0 119.333 -23.667 156 -71c17.333 -21.333 30.166 -46 38.499 -74zM480 626l-75 -59l-133 101l-134 -101l-75 59l209 161zM283 405
c-33.333 0 -59.333 -10.833 -78 -32.5s-29.667 -49.5 -33 -83.5h207c0 52.667 -17 88 -51 106c-12 6.66699 -27 10 -45 10z" />
    <glyph glyph-name="edieresis" unicode="&#xeb;" horiz-adv-x="530" 
d="M469.5 354c8.33301 -28 12.5 -53.667 12.5 -77s-1.33301 -44.333 -4 -63h-314c1.33301 -39.333 11 -71.333 29 -96s45.333 -37 82 -37c48.667 0 77.667 21.333 87 64h119c-8 -48.667 -30.333 -87 -67 -115c-38 -29.333 -84.333 -44 -139 -44
c-64 0 -117.667 23.333 -161 70c-44.667 48.667 -67 111 -67 187c0 78 22.333 140.667 67 188c42.667 45.333 96.334 68 161.001 68c67.333 0 119.666 -23.667 156.999 -71c16.667 -21.333 29.167 -46 37.5 -74zM276 405c-33.333 0 -59.333 -10.833 -78 -32.5
s-29.667 -49.5 -33 -83.5h207c0 52.667 -16.667 88 -50 106c-12.667 6.66699 -28 10 -46 10zM118.5 631.5c-13 12.333 -19.5 28 -19.5 47s6.5 34.833 19.5 47.5s29.833 19 50.5 19s37.667 -6.33301 51 -19s20 -28.5 20 -47.5s-6.66699 -34.667 -20 -47
s-30.333 -18.5 -51 -18.5s-37.5 6.16699 -50.5 18.5zM292 679c0 19.333 6.66699 35.333 20 48s30.166 19 50.499 19s37.166 -6.33301 50.499 -19s20 -28.667 20 -48s-6.66699 -35 -20 -47s-30.166 -18 -50.499 -18s-37.166 6 -50.499 18s-20 27.667 -20 47z" />
    <glyph glyph-name="igrave" unicode="&#xec;" horiz-adv-x="328" 
d="M103 487h118v-487h-118v487zM50 764l267 -132l-30 -74l-279 104z" />
    <glyph glyph-name="iacute" unicode="&#xed;" horiz-adv-x="328" 
d="M103 0h118v487h-118v-487zM316 662l-279 -104l-30 74l267 132z" />
    <glyph glyph-name="icircumflex" unicode="&#xee;" horiz-adv-x="328" 
d="M103 487h118v-487h-118v487zM370 616l-75 -59l-133 101l-134 -101l-75 59l209 161z" />
    <glyph glyph-name="idieresis" unicode="&#xef;" horiz-adv-x="328" 
d="M103 487h118v-487h-118v487zM14.5 631.5c-13 12.333 -19.5 28 -19.5 47s6.5 34.833 19.5 47.5s29.833 19 50.5 19s37.667 -6.33301 51 -19s20 -28.5 20 -47.5s-6.66699 -34.667 -20 -47s-30.333 -18.5 -51 -18.5s-37.5 6.16699 -50.5 18.5zM188 679
c0 19.333 6.66699 35.333 20 48s30.166 19 50.499 19s37.166 -6.33301 50.499 -19s20 -28.667 20 -48s-6.66699 -35 -20 -47s-30.166 -18 -50.499 -18s-37.166 6 -50.499 18s-20 27.667 -20 47z" />
    <glyph glyph-name="ntilde" unicode="&#xf1;" horiz-adv-x="623" 
d="M363 499c-70.667 0 -121.997 -32.333 -153.997 -97l-13 84h-103v-486h118v225c1.33301 56 13.166 98 35.499 126s49.166 42 80.499 42s55.666 -9.16699 72.999 -27.5s26 -45.5 26 -81.5v-284h118v284c0 64.667 -15.167 116.667 -45.5 156s-75.5 59 -135.5 59z
M384.003 702c21.333 0 39 16.332 53 48.999l50 -33c-7.33301 -36 -20.5 -65.5 -39.5 -88.5s-39.167 -34.5 -60.5 -34.5c-12 0 -23.833 2.33301 -35.5 7s-26.167 11.334 -43.5 20.001c-30 15.333 -50.333 23 -61 23c-23.333 0 -43 -16.667 -59 -50l-47 28
c8 40.667 21.5 72.167 40.5 94.5s41.167 33.5 66.5 33.5c18 0 39 -6.16699 63 -18.5l48.5 -24.5c8.33301 -4 16.5 -6 24.5 -6z" />
    <glyph glyph-name="ograve" unicode="&#xf2;" horiz-adv-x="566" 
d="M284 499c32.667 0 63.3311 -5.16699 91.998 -15.5s53.334 -26.166 74.001 -47.499c46 -46.667 69 -111.334 69 -194.001c0 -81.333 -23 -145.333 -69 -192c-41.333 -42.667 -96.666 -64 -165.999 -64s-125.333 21.333 -168 64c-46 46 -69 110 -69 192
c0 83.333 23 148 69 194c42 42 98 63 168 63zM370.997 358.5c-20 25.667 -47.8311 38.5 -83.498 38.5s-64.834 -12.833 -87.501 -38.5s-34 -64.167 -34 -115.5s10.167 -89.833 30.5 -115.5s48.166 -38.5 83.499 -38.5s64.333 12.833 87 38.5s34 64.167 34 115.5
s-10 89.833 -30 115.5zM171.999 764l267 -132l-30 -74l-279 104z" />
    <glyph glyph-name="oacute" unicode="&#xf3;" horiz-adv-x="566" 
d="M284 499c-33.333 0 -64.333 -5.16895 -93 -15.502s-53.667 -26.166 -75 -47.499c-46 -46 -69 -110.667 -69 -194c0 -82 23 -146 69 -192c42.667 -42.667 98.667 -64 168 -64s124.666 21.333 165.999 64c46 46.667 69 110.667 69 192c0 82.667 -23 147.334 -69 194.001
c-41.333 42 -96.666 63 -165.999 63zM200 358.498c22.667 25.667 51.832 38.5 87.499 38.5s63.5 -12.833 83.5 -38.5s30 -64.167 30 -115.5s-11.333 -89.833 -34 -115.5s-51.667 -38.5 -87 -38.5s-63.166 12.833 -83.499 38.5s-30.5 64.167 -30.5 115.5
s11.333 89.833 34 115.5zM437.998 661.998l-279 -104l-30 74l267 132z" />
    <glyph glyph-name="ocircumflex" unicode="&#xf4;" horiz-adv-x="566" 
d="M284 499c32.667 0 63.3311 -5.16699 91.998 -15.5s53.334 -26.166 74.001 -47.499c46 -46.667 69 -111.334 69 -194.001c0 -81.333 -23 -145.333 -69 -192c-41.333 -42.667 -96.666 -64 -165.999 -64s-125.333 21.333 -168 64c-46 46 -69 110 -69 192
c0 83.333 23 148 69 194c42 42 98 63 168 63zM370.997 358.5c-20 25.667 -47.8311 38.5 -83.498 38.5s-64.834 -12.833 -87.501 -38.5s-34 -64.167 -34 -115.5s10.167 -89.833 30.5 -115.5s48.166 -38.5 83.499 -38.5s64.333 12.833 87 38.5s34 64.167 34 115.5
s-10 89.833 -30 115.5zM491.999 616l-75 -59l-133 101l-134 -101l-75 59l209 161z" />
    <glyph glyph-name="otilde" unicode="&#xf5;" horiz-adv-x="566" 
d="M284 499c-33.333 0 -64.333 -5.16895 -93 -15.502s-53.667 -26.166 -75 -47.499c-46 -46 -69 -110.667 -69 -194c0 -82 23 -146 69 -192c42.667 -42.667 98.667 -64 168 -64s124.666 21.333 165.999 64c46 46.667 69 110.667 69 192c0 82.667 -23 147.334 -69 194.001
c-41.333 42 -96.666 63 -165.999 63zM200 358.498c22.667 25.667 51.832 38.5 87.499 38.5s63.5 -12.833 83.5 -38.5s30 -64.167 30 -115.5s-11.333 -89.833 -34 -115.5s-51.667 -38.5 -87 -38.5s-63.166 12.833 -83.499 38.5s-30.5 64.167 -30.5 115.5
s11.333 89.833 34 115.5zM352.998 701.998c21.333 0 39 16.332 53 48.999l50 -33c-7.33301 -36 -20.5 -65.5 -39.5 -88.5s-39.167 -34.5 -60.5 -34.5c-12 0 -23.833 2.33301 -35.5 7s-26.5 11.334 -44.5 20.001c-29.333 15.333 -49.333 23 -60 23
c-23.333 0 -43 -16.667 -59 -50l-47 28c8 40.667 21.5 72.167 40.5 94.5s41.167 33.5 66.5 33.5c18 0 39 -6.16699 63 -18.5l48.5 -24.5c8.33301 -4 16.5 -6 24.5 -6z" />
    <glyph glyph-name="odieresis" unicode="&#xf6;" horiz-adv-x="566" 
d="M284 499c32.667 0 63.3311 -5.16699 91.998 -15.5s53.334 -26.166 74.001 -47.499c46 -46.667 69 -111.334 69 -194.001c0 -81.333 -23 -145.333 -69 -192c-41.333 -42.667 -96.666 -64 -165.999 -64s-125.333 21.333 -168 64c-46 46 -69 110 -69 192
c0 83.333 23 148 69 194c42 42 98 63 168 63zM370.997 358.5c-20 25.667 -47.8311 38.5 -83.498 38.5s-64.834 -12.833 -87.501 -38.5s-34 -64.167 -34 -115.5s10.167 -89.833 30.5 -115.5s48.166 -38.5 83.499 -38.5s64.333 12.833 87 38.5s34 64.167 34 115.5
s-10 89.833 -30 115.5zM136.499 631.5c-13 12.333 -19.5 28 -19.5 47s6.5 34.833 19.5 47.5s29.833 19 50.5 19s37.667 -6.33301 51 -19s20 -28.5 20 -47.5s-6.66699 -34.667 -20 -47s-30.333 -18.5 -51 -18.5s-37.5 6.16699 -50.5 18.5zM309.999 679
c0 19.333 6.66699 35.333 20 48s30.166 19 50.499 19s37.166 -6.33301 50.499 -19s20 -28.667 20 -48s-6.66699 -35 -20 -47s-30.166 -18 -50.499 -18s-37.166 6 -50.499 18s-20 27.667 -20 47z" />
    <glyph glyph-name="ugrave" unicode="&#xf9;" horiz-adv-x="627" 
d="M416 88c-30.667 -64.667 -79.9971 -96.999 -147.997 -96.999c-86 0 -142.667 33.667 -170 101c-10 23.333 -15 51.666 -15 84.999v310h118v-298c0 -32 7.66699 -55.833 23 -71.5s34.166 -23.5 56.499 -23.5s41.166 3.16699 56.499 9.5s28.666 15.833 39.999 28.5
c24.667 28.667 37.667 67 39 115v240h118v-487h-118v88zM201.003 784.001l267 -132l-30 -74l-279 104z" />
    <glyph glyph-name="uacute" unicode="&#xfa;" horiz-adv-x="627" 
d="M268 -9c68 0 117.332 32.333 147.999 97v-88h118v487h-118v-232c0 -51.333 -12.667 -91.666 -38 -120.999c-22.667 -26.667 -50.167 -40 -82.5 -40s-56.166 7.83301 -71.499 23.5s-23 39.5 -23 71.5v298h-118v-310c0 -62.667 17.667 -110.334 53 -143.001
c31.333 -28.667 75.333 -43 132 -43zM466.999 682l-279 -104l-30 74l267 132z" />
    <glyph glyph-name="ucircumflex" unicode="&#xfb;" horiz-adv-x="627" 
d="M416 88c-30.667 -64.667 -79.9971 -96.999 -147.997 -96.999c-86 0 -142.667 33.667 -170 101c-10 23.333 -15 51.666 -15 84.999v310h118v-298c0 -32 7.66699 -55.833 23 -71.5s34.166 -23.5 56.499 -23.5s41.166 3.16699 56.499 9.5s28.666 15.833 39.999 28.5
c24.667 28.667 37.667 67 39 115v240h118v-487h-118v88zM521.003 636.001l-75 -59l-133 101l-134 -101l-75 59l209 161z" />
    <glyph glyph-name="udieresis" unicode="&#xfc;" horiz-adv-x="627" 
d="M416 88c-30.667 -64.667 -79.9971 -96.999 -147.997 -96.999c-86 0 -142.667 33.667 -170 101c-10 23.333 -15 51.666 -15 84.999v310h118v-298c0 -32 7.66699 -55.833 23 -71.5s34.166 -23.5 56.499 -23.5s41.166 3.16699 56.499 9.5s28.666 15.833 39.999 28.5
c24.667 28.667 37.667 67 39 115v240h118v-487h-118v88zM165.503 631.501c-13 12.333 -19.5 28 -19.5 47s6.5 34.833 19.5 47.5s29.833 19 50.5 19s37.667 -6.33301 51 -19s20 -28.5 20 -47.5s-6.66699 -34.667 -20 -47s-30.333 -18.5 -51 -18.5s-37.5 6.16699 -50.5 18.5z
M339.003 679.001c0 19.333 6.66699 35.333 20 48s30.166 19 50.499 19s37.166 -6.33301 50.499 -19s20 -28.667 20 -48s-6.66699 -35 -20 -47s-30.166 -18 -50.499 -18s-37.166 6 -50.499 18s-20 27.667 -20 47z" />
    <glyph glyph-name="dotlessi" unicode="&#x131;" 
d="M93 487h118v-487h-118v487z" />
    <glyph glyph-name="apostrophe" unicode="&#x2bc;" horiz-adv-x="237" 
d="M80.5 537.5c-13 11.667 -19.501 27.334 -19.501 47.001s7.66699 36.5 23 50.5s36.333 21 63 21s48.334 -10.333 65.001 -31s25 -46 25 -76c0 -48.667 -22 -93 -66 -133c-14 -12.667 -29.667 -23.334 -47 -32.001l-88 44c22 11.333 41.5 24 58.5 38s28.167 30.333 33.5 49
c-18.667 3.33301 -34.5 10.833 -47.5 22.5z" />
    <glyph glyph-name="circumflex" unicode="&#x2c6;" horiz-adv-x="465" 
d="M441 752l-75 -59l-133 101l-134 -101l-75 59l209 161z" />
    <glyph glyph-name="tilde" unicode="&#x2dc;" horiz-adv-x="394" 
d="M266 838c21.333 0 39 16.332 53 48.999l50 -33c-7.33301 -36 -20.5 -65.5 -39.5 -88.5s-39.167 -34.5 -60.5 -34.5c-12 0 -23.833 2.33301 -35.5 7s-26.167 11.334 -43.5 20.001c-30 15.333 -50.333 23 -61 23c-23.333 0 -43 -16.667 -59 -50l-47 28
c8 40.667 21.5 72.167 40.5 94.5s41.167 33.5 66.5 33.5c18 0 39 -6.16699 63 -18.5l48.5 -24.5c8.33301 -4 16.5 -6 24.5 -6z" />
    <glyph glyph-name="endash" unicode="&#x2013;" horiz-adv-x="525" 
d="M55 353h415v-103h-415v103z" />
    <glyph glyph-name="emdash" unicode="&#x2014;" horiz-adv-x="768" 
d="M55 353h659v-103h-659v103z" />
    <glyph glyph-name="quoteleft" unicode="&#x2018;" horiz-adv-x="271" 
d="M189.5 400c-15 -14 -35.833 -21.001 -62.5 -21.001s-48.5 10.5 -65.5 31.5s-25.5 47 -25.5 78s10.833 61.5 32.5 91.5s50.5 54 86.5 72l83 -46c-51.333 -24 -82.333 -53 -93 -87c18.667 -3.33301 34.5 -10.666 47.5 -21.999s19.5 -26.833 19.5 -46.5
s-7.5 -36.5 -22.5 -50.5z" />
    <glyph glyph-name="quoteright" unicode="&#x2019;" horiz-adv-x="271" 
d="M77 631.5c15.333 13.667 36.167 20.501 62.5 20.501s48 -10.5 65 -31.5s25.5 -47 25.5 -78s-10.833 -61.5 -32.5 -91.5s-50.5 -54 -86.5 -72l-82 45c51.333 26 82.333 55.333 93 88c-19.333 3.33301 -35.5 10.666 -48.5 21.999s-19.5 27 -19.5 47s7.66699 36.833 23 50.5
z" />
    <glyph glyph-name="rupeesymbol" unicode="&#x20a8;" horiz-adv-x="604" 
d="M83 649h464v-66h-182c40 -24 65 -55.333 75 -94h107v-67h-104c-4.66699 -42.667 -22.667 -79.167 -54 -109.5s-80 -50.5 -146 -60.5l261 -252h-166l-255 246v67h77c48.667 1.33301 85.5 12 110.5 32s40.167 45.667 45.5 77h-233v67h229c-7.33301 28 -24 50.667 -50 68
s-62.667 26 -110 26h-69v66z" />
    <glyph glyph-name="minus" unicode="&#x2212;" horiz-adv-x="506" 
d="M427 353v-103h-348v103h348z" />
    <glyph glyph-name=".null" horiz-adv-x="0" 
 />
    <glyph glyph-name="nonmarkingreturn" horiz-adv-x="589" 
 />
    <glyph glyph-name="zero.propold" horiz-adv-x="570" 
d="M285 583c70.667 0 127.667 -25.666 171 -76.999c44 -52.667 66 -126.334 66 -221.001s-22 -168.667 -66 -222c-42.667 -51.333 -99.667 -77 -171 -77s-128.333 25.667 -171 77c-44.667 54 -67 128 -67 222s22.333 167.667 67 221c43.333 51.333 100.333 77 171 77z
M405 285.001c0 128 -40 192 -120 192c-79.333 0 -119 -64 -119 -192s39.833 -192 119.5 -192s119.5 64 119.5 192z" />
    <glyph glyph-name="one.propold" horiz-adv-x="357" 
d="M42 518c49.333 6 93.333 23.667 132 53h89v-571h-118v430c-32 -16 -66.333 -24.667 -103 -26v114z" />
    <glyph glyph-name="two.propold" horiz-adv-x="595" 
d="M313 480c-67.333 0 -104.333 -26.668 -111 -80.001h-131c1.33301 60 24 106 68 138c42 30 98 45 168 45c65.333 0 119 -17.333 161 -52c40.667 -33.333 61 -74.666 61 -123.999s-13.167 -87.5 -39.5 -114.5s-68.833 -47.833 -127.5 -62.5l-105 -26
c-28 -7.33301 -48.167 -16.833 -60.5 -28.5s-18.5 -26.167 -18.5 -43.5v-24h355v-108h-473v98c0 55.333 12.667 98 38 128c24.667 28 64 48.667 118 62l95 23c36.667 9.33301 62.5 21.5 77.5 36.5s22.5 33.5 22.5 55.5s-8.66699 40.333 -26 55s-41.333 22 -72 22z" />
    <glyph glyph-name="three.propold" horiz-adv-x="588" 
d="M501 407c0 -66.667 -35.002 -113.665 -105.002 -140.998c40.667 -15.333 72 -39 94 -71s33 -65.833 33 -101.5s-6 -65.834 -18 -90.501s-29 -46 -51 -64c-47.333 -38.667 -107.666 -58 -180.999 -58c-70.667 0 -129.334 17.333 -176.001 52c-51.333 38 -77 92 -77 162
h120c2.66699 -40 16.334 -69 41.001 -87s55.834 -27 93.501 -27s68.667 10.667 93 32s36.5 48.166 36.5 80.499s-12 59.333 -36 81s-58 32.5 -102 32.5h-67v93h61c38 0 68 8.16699 90 24.5s33 38.5 33 66.5s-9.66699 50.5 -29 67.5s-45.166 25.5 -77.499 25.5
s-59 -7.5 -80 -22.5s-33.5 -36.167 -37.5 -63.5h-126c11.333 96 60.333 154.333 147 175c28 6.66699 59.167 10 93.5 10s65.666 -4.5 93.999 -13.5s52.5 -21.5 72.5 -37.5c40.667 -32 61 -73.667 61 -125z" />
    <glyph glyph-name="four.propold" horiz-adv-x="596" 
d="M466 574v-423h112v-102h-112v-157h-119v157h-329v89l332 436h116zM148 138h205v263z" />
    <glyph glyph-name="five.propold" horiz-adv-x="589" 
d="M503 581l0.00195312 -108h-273l-15 -156c30 8 61.833 12 95.5 12s64.5 -5.16699 92.5 -15.5s52 -24.833 72 -43.5c41.333 -38.667 62 -90.334 62 -155.001c0 -67.333 -24.333 -123.333 -73 -168c-47.333 -44 -107.333 -66 -180 -66c-64 0 -116.667 18 -158 54
c-46 39.333 -69 91.666 -69 156.999h117c0 -34 10.333 -59.667 31 -77s48 -26 82 -26c37.333 0 68.666 11.667 93.999 35c25.333 22.667 38 52.834 38 90.501s-11.833 66.834 -35.5 87.501s-59.834 31 -108.501 31h-184l31 348h381z" />
    <glyph glyph-name="six.propold" horiz-adv-x="607" 
d="M425 471c-3.33301 26 -12.6689 46.499 -28.002 61.499s-36.5 22.5 -63.5 22.5s-50.667 -5.83301 -71 -17.5s-37.833 -28.5 -52.5 -50.5c-29.333 -45.333 -44 -106.666 -44 -183.999c0 -28.667 1 -50.334 3 -65.001c7.33301 57.333 29 99.333 65 126
c31.333 22.667 70.333 34 117 34c60 0 109.667 -19.333 149 -58c38.667 -37.333 58 -86.666 58 -147.999s-21.667 -111 -65 -149s-100 -57 -170 -57c-81.333 0 -147.666 30.667 -198.999 92s-77 139.666 -77 234.999c0 110.667 25.667 197 77 259c50 60 118 90 204 90
c65.333 0 118 -17.333 158 -52c40.667 -35.333 62.334 -81.666 65.001 -138.999h-126zM242.497 272.499c-21.667 -19 -32.501 -44.167 -32.501 -75.5s10.833 -56.166 32.5 -74.499s48.334 -27.5 80.001 -27.5s58.5 9.16699 80.5 27.5s33 43.166 33 74.499s-11.333 57 -34 77
c-20.667 18 -47 27 -79 27s-58.833 -9.5 -80.5 -28.5z" />
    <glyph glyph-name="seven.propold" horiz-adv-x="498" 
d="M480 583v-102l-300 -585h-144l323 584h-335v103h456z" />
    <glyph glyph-name="eight.propold" horiz-adv-x="647" 
d="M502 609.5c48.667 -35 72.999 -79.5 72.999 -133.5c0 -32.667 -11.167 -61.834 -33.5 -87.501s-54.5 -42.167 -96.5 -49.5c55.333 -22 93.666 -44.333 114.999 -67c25.333 -26.667 38 -60 38 -100c0 -55.333 -24 -100 -72 -134c-50 -34.667 -117.667 -52 -203 -52
c-82 0 -148.333 18 -199 54c-50 34.667 -75 79.667 -75 135c0 40.667 14.167 73.5 42.5 98.5s64.5 40.167 108.5 45.5c-58 28 -97.333 64.333 -118 109c-7.33301 16.667 -11 35.667 -11 57c0 54.667 21.833 97.834 65.5 129.501s103.334 47.5 179.001 47.5
s137.834 -17.5 186.501 -52.5zM302.999 278c-60.667 -4 -101.668 -23.335 -123.001 -58.002c-6 -10 -9 -21.667 -9 -35s4 -25.666 12 -36.999s19 -21 33 -29c26.667 -16 64.167 -24 112.5 -24s85 6.5 110 19.5s37.5 29 37.5 48s-6.16699 34.333 -18.5 46
s-29.166 21.834 -50.499 30.501zM258.998 410.998l75 -29c32 0 60 8 84 24c23.333 16 35 37 35 63s-12 46.833 -36 62.5s-55.333 23.5 -94 23.5c-37.333 0 -68.333 -7 -93 -21s-37 -33.5 -37 -58.5s22 -46.5 66 -64.5z" />
    <glyph glyph-name="nine.propold" horiz-adv-x="609" 
d="M296 583c40 0 77.167 -9.83398 111.5 -29.501s63.166 -45.5 86.499 -77.5c46 -65.333 69 -145 69 -239c0 -110 -25 -197.333 -75 -262c-48 -62.667 -113.333 -94 -196 -94c-66 0 -120.667 19 -164 57c-44 38 -66 87.333 -66 148h124c2 -30.667 11.833 -54.5 29.5 -71.5
s43.167 -25.5 76.5 -25.5c52.667 0 91.334 23.167 116.001 69.5s37 108.833 37 187.5c0 24.667 -1.33301 48.334 -4 71.001c-6.66699 -50 -25.834 -88.167 -57.501 -114.5s-69.5 -39.5 -113.5 -39.5c-61.333 0 -112.666 19.667 -153.999 59c-42 39.333 -63 89 -63 149
c0 62 21.667 112.667 65 152c44 40 103.333 60 178 60zM287 479.999c-35.333 0 -62.834 -10.332 -82.501 -30.999s-29.5 -47 -29.5 -79s10 -58.333 30 -79s47.667 -31 83 -31s63 10.667 83 32s30 47.666 30 78.999s-10.167 57.333 -30.5 78s-48.166 31 -83.499 31z" />
    </font>
</defs>
</svg>
