<?xml version="1.0" standalone="no"?>
<!DOCTYPE svg PUBLIC "-//W3C//DTD SVG 1.1//EN" "http://www.w3.org/Graphics/SVG/1.1/DTD/svg11.dtd" >
<svg xmlns="http://www.w3.org/2000/svg" xmlns:xlink="http://www.w3.org/1999/xlink" version="1.1">
<metadata></metadata>
<defs>
<font id="roboto_condenseditalic" horiz-adv-x="991" >
<font-face units-per-em="2048" ascent="1536" descent="-512" />
<missing-glyph horiz-adv-x="465" />
<glyph unicode="&#xfb01;" horiz-adv-x="983" d="M71 0l163 939h-137l25 143h136l13 93q26 187 129.5 287.5t259.5 96.5q63 -2 121 -21.5t115 -42.5l-46 -155q-93 53 -186 53q-180 3 -216 -205l-16 -106h170l-25 -143h-169l-163 -939h-174zM549 0l188 1082h174l-188 -1082h-174z" />
<glyph unicode="&#xfb02;" horiz-adv-x="1011" d="M99 0l163 939h-137l25 143h137l17 120q24 172 120 267t244 91q76 -2 177 -25l160 -39l-255 -1496h-171l235 1385q-95 19 -142 19q-166 0 -199 -226l-14 -96h180l-25 -143h-179l-163 -939h-173z" />
<glyph unicode="&#xfb03;" horiz-adv-x="1489" d="M99 0l163 939h-137l25 143h137l14 107q24 180 118 277.5t238 93.5q52 -2 112 -19l-25 -150q-40 10 -79 12q-155 0 -190 -219l-16 -102h306l10 80q24 189 126 294t265 103q63 -2 121 -21t115 -43l-46 -155q-93 52 -188 52q-178 3 -215 -203l-16 -107h172l-25 -143h-171 l-163 -939h-173l163 939h-305l-163 -939h-173zM1056 0l188 1082h172l-188 -1082h-172z" />
<glyph unicode="&#xfb04;" horiz-adv-x="1489" d="M99 0l163 939h-137l25 143h137l16 113q25 180 118.5 274t235.5 91q52 -2 112 -19l-25 -150q-48 12 -79 12q-71 2 -120.5 -50t-66.5 -151l-19 -120h306l17 120q24 172 120 267t244 91q63 -1 158 -22l178 -42l-254 -1496h-172l242 1382q-103 20 -146 20q-78 0 -129.5 -52 t-68.5 -153l-17 -115h181l-25 -143h-180l-163 -939h-173l163 939h-305l-163 -939h-173z" />
<glyph horiz-adv-x="0" />
<glyph horiz-adv-x="0" />
<glyph unicode="&#xd;" horiz-adv-x="465" />
<glyph horiz-adv-x="0" />
<glyph unicode=" "  horiz-adv-x="465" />
<glyph unicode="&#x09;" horiz-adv-x="465" />
<glyph unicode="&#xa0;" horiz-adv-x="465" />
<glyph unicode="!" horiz-adv-x="498" d="M64 91q2 44 28.5 76t72.5 33q42 2 70 -29t26 -77q-2 -43 -28.5 -73.5t-71.5 -32.5q-42 -2 -70.5 27.5t-26.5 75.5zM136 411l169 1045h181l-195 -1045h-155z" />
<glyph unicode="&#x22;" horiz-adv-x="645" d="M200 1041l80 503l136 -9l-23 -145l-83 -348zM462 1042l80 502l136 -9l-23 -145l-83 -348h-110z" />
<glyph unicode="#" horiz-adv-x="1098" d="M94 410l24 137h209l119 354h-205l24 139h227l140 416h135l-140 -416h194l140 416h136l-139 -416h155l-24 -139h-177l-119 -354h174l-24 -137h-196l-138 -410h-136l138 410h-195l-137 -410h-135l137 410h-187zM462 547h195l119 354h-195z" />
<glyph unicode="$" d="M88 429h173q-9 -145 34.5 -216.5t129.5 -72.5q102 -2 170 65t81 178q18 172 -169 263q-149 72 -214.5 175t-54.5 250q13 163 102.5 269.5t240.5 131.5l39 220h138l-40 -223q107 -29 163 -123t58 -245l-3 -93h-171l2 92q-2 97 -39 155t-105 60q-90 2 -146.5 -64.5 t-68.5 -175.5q-9 -88 32 -153t136 -112q154 -76 218 -177.5t53 -248.5q-12 -166 -110 -272t-261 -128l-35 -192h-136l35 194q-131 26 -198 140t-54 303z" />
<glyph unicode="%" horiz-adv-x="1267" d="M197 1099l6 64q13 144 89.5 230.5t189.5 84.5q108 -4 166 -88.5t51 -213.5l-6 -65q-13 -142 -89.5 -228t-187.5 -84q-105 2 -165.5 87t-53.5 213zM223 184l770 1128l92 -72l-772 -1128zM324 1041q4 -55 29 -88t68 -34q54 -2 93 45.5t51 133.5l8 79v57q-4 55 -28.5 88.5 t-67.5 34.5q-58 2 -97.5 -50t-48.5 -140l-7 -70v-56zM626 279l6 78q15 136 91 219.5t187 81.5q106 -3 165.5 -87t52.5 -214l-6 -65q-13 -146 -91 -231.5t-187 -82.5q-104 2 -164.5 85.5t-53.5 215.5zM753 220q4 -55 28.5 -88.5t67.5 -34.5q58 -2 97 51t48 139l7 71v57 q-4 55 -28.5 88.5t-67.5 34.5q-57 2 -98 -51.5t-48.5 -143t-5.5 -123.5z" />
<glyph unicode="&#x26;" horiz-adv-x="1090" d="M74 383q9 106 73.5 199.5t220.5 205.5l-39 86q-57 130 -49 240q14 168 109 267.5t235 95.5q121 -4 195 -90.5t66 -210.5q-10 -182 -200 -327l-110 -84l186 -362q66 122 89 269h152q-26 -253 -159 -418l128 -254h-194l-52 105q-146 -128 -311 -124q-161 2 -257 114.5 t-83 287.5zM250 383q-14 -108 32 -179t139 -73q90 -3 186 74l43 36l-209 421l-34 -26q-143 -122 -157 -253zM448 1121q-5 -44 6.5 -92.5t48.5 -132.5l85 66q55 42 91.5 92.5t43.5 122.5q5 64 -27 106.5t-85 42.5q-63 0 -107.5 -56.5t-55.5 -148.5z" />
<glyph unicode="'" horiz-adv-x="356" d="M170 1057l77 479h146l-19 -118l-76 -361h-128z" />
<glyph unicode="(" horiz-adv-x="634" d="M110 400q4 92 16 176l12 73q63 353 208.5 613t350.5 382l23 -124q-185 -169 -296 -451t-146 -678l-7 -127q-7 -208 31.5 -366t123.5 -256l-45 -111q-96 86 -161 219t-92 305t-18 345z" />
<glyph unicode=")" horiz-adv-x="642" d="M-98 -356q272 252 379 727q64 283 70 537q10 425 -154 623l45 111q146 -128 215 -355t56 -515q-5 -93 -16 -176l-2 -11q-36 -242 -116 -453t-195.5 -364.5t-257.5 -238.5z" />
<glyph unicode="*" horiz-adv-x="866" d="M107 1077l68 144l278 -113l51 348h150l-70 -344l303 108l19 -159l-315 -91l147 -275l-128 -88l-131 290l-222 -280l-114 98l241 272z" />
<glyph unicode="+" horiz-adv-x="996" d="M84 606l31 175h321l74 425h174l-74 -425h320l-31 -175h-319l-80 -460h-174l80 460h-322z" />
<glyph unicode="," horiz-adv-x="400" d="M-113 -216q116 143 144 284l26 151h177l-21 -135q-36 -228 -222 -375z" />
<glyph unicode="-" horiz-adv-x="503" d="M35 543l27 151h402l-27 -151h-402z" />
<glyph unicode="." horiz-adv-x="533" d="M53 94q0 49 31 81.5t80 34.5q49 1 81 -30t31 -80t-33 -79.5t-80 -32.5t-79 27.5t-31 78.5z" />
<glyph unicode="/" horiz-adv-x="746" d="M-100 -125l771 1581h152l-769 -1581h-154z" />
<glyph unicode="0" d="M107 351q-7 128 18 298l38 252q53 310 168 444.5t296 130.5q276 -7 297 -363q6 -106 -13 -270l-46 -302q-53 -299 -169 -433.5t-292 -128.5q-276 7 -297 372zM271 422q-11 -286 144 -292q210 -11 272 372l51 338q19 128 22 204q6 144 -31 210t-114 71q-213 12 -274 -376 l-55 -372q-13 -95 -15 -155z" />
<glyph unicode="1" d="M239 1091l32 178l468 194h31l-249 -1463h-174l214 1227z" />
<glyph unicode="2" d="M19 0l22 141l522 590q101 116 147 215t38 209q-7 77 -46 122.5t-103 48.5q-109 3 -178.5 -77t-87.5 -221l-170 -1q20 202 141.5 327.5t303.5 121.5q157 -4 244.5 -111t72.5 -272q-18 -192 -200 -414l-71 -84l-399 -444h579l-24 -151h-791z" />
<glyph unicode="3" d="M65 384h173q-8 -119 36.5 -185t129.5 -68q103 -3 170 73t79 206q12 118 -36.5 185t-146.5 71l-123 1l25 151l105 -2q129 2 202.5 97.5t59.5 249.5q-7 77 -47 119.5t-107 43.5q-88 2 -149 -62.5t-80 -188.5l-170 -1q17 177 130.5 291t279.5 112q106 -2 181 -54.5 t110 -144.5t25 -206q-10 -108 -72.5 -193.5t-161.5 -136.5q82 -42 119 -127.5t27 -201.5q-18 -195 -136.5 -316t-293.5 -117q-159 4 -248.5 116t-80.5 288z" />
<glyph unicode="4" d="M12 338l21 119l693 999h187l-168 -967h157l-26 -151h-157l-59 -338h-173l59 338h-534zM235 489h337l126 694z" />
<glyph unicode="5" d="M106 384h161q11 -250 177 -253q129 -3 200.5 129t60.5 311q-7 96 -51 153t-120 60q-48 2 -90.5 -17t-99.5 -73l-142 39l175 723h616l-27 -171h-468l-103 -398q96 65 190 63q136 -2 212 -103.5t82 -269.5q6 -170 -50 -311t-159 -216.5t-236 -71.5q-148 3 -237 112.5 t-91 293.5z" />
<glyph unicode="6" d="M114 420q-1 63 17 205q62 425 230 625.5t441 207.5h39l-15 -157h-33q-161 -4 -273.5 -111t-188.5 -357q112 126 252 122q129 -4 203 -101.5t80 -268.5q6 -158 -48.5 -303.5t-154 -225.5t-233.5 -76q-174 5 -256 167q-57 114 -60 273zM286 465q-7 -144 32.5 -236.5 t121.5 -96.5q118 -5 188.5 119.5t66.5 319.5q-2 100 -41.5 164.5t-111.5 66.5q-73 2 -138 -50.5t-108 -148.5l-7 -72z" />
<glyph unicode="7" d="M129 0l689 1304h-626l24 152h811l-18 -114l-692 -1342h-188z" />
<glyph unicode="8" d="M85 385q22 249 259 370q-64 54 -92.5 136.5t-20.5 175.5q13 181 123.5 297.5t276.5 112.5q148 -4 231 -113t69 -279q-21 -221 -231 -341q74 -54 111 -144.5t28 -197.5q-15 -185 -133.5 -306t-296.5 -117q-160 4 -249.5 119t-74.5 287zM258 299q9 -79 51 -123.5t111 -45.5 q99 -3 166.5 71.5t80.5 203.5q11 122 -33 194.5t-127 74.5h-2q-79 1 -139.5 -50.5t-89 -144t-18.5 -180.5zM402 1065q-9 -111 29 -175t111 -66q103 -4 166 99t50 238q-7 74 -44 118.5t-95 45.5q-89 2 -148 -73t-69 -187z" />
<glyph unicode="9" d="M160 862q-6 158 50 309t156 230t229 75q153 -4 234 -127.5t78 -338.5q-2 -131 -38 -318q-66 -344 -222.5 -512t-401.5 -181l-62 -1l15 156h43q167 5 277 112.5t176 355.5q-124 -138 -253 -135q-86 1 -149 48t-96.5 136t-35.5 191zM330 913q-3 -126 35.5 -199t114.5 -75 q131 -6 240 194q19 148 15 232q-6 124 -44 189.5t-106 68.5q-127 6 -199 -148q-42 -91 -52 -200z" />
<glyph unicode=":" horiz-adv-x="474" d="M47 94q0 49 31 81.5t80 34.5q49 1 81 -30t31 -80t-33 -79.5t-80 -32.5t-79 27.5t-31 78.5zM200 977q0 49 31 81.5t80 34.5q49 1 81 -30t31 -80t-33 -79.5t-80 -32.5t-79 27.5t-31 78.5z" />
<glyph unicode=";" horiz-adv-x="413" d="M-99 -216q116 143 144 284l26 151h177l-21 -135q-36 -228 -222 -375zM176 977q0 49 31 81.5t80 34.5q49 1 81 -30t31 -80t-33 -79.5t-80 -32.5t-79 27.5t-31 78.5z" />
<glyph unicode="&#x3c;" horiz-adv-x="896" d="M72 580l26 146l731 378l-37 -207l-539 -258l451 -253l-32 -186z" />
<glyph unicode="=" horiz-adv-x="962" d="M108 399l28 160h682l-29 -160h-681zM180 814l28 161h682l-29 -161h-681z" />
<glyph unicode="&#x3e;" horiz-adv-x="924" d="M60 190l36 203l571 263l-481 258l31 180l635 -379l-26 -145z" />
<glyph unicode="?" horiz-adv-x="848" d="M170 1115q19 164 124.5 265t258.5 97q147 -4 224.5 -108.5t62.5 -264.5q-14 -166 -172 -334l-125 -127q-73 -84 -96 -233l-168 -1q13 114 55.5 200.5t140 187t132 154.5t47.5 105.5t10 115.5q-4 67 -36 105.5t-88 39.5q-76 2 -129 -54.5t-70 -146.5zM213 91 q2 44 27.5 75.5t71.5 33.5q40 2 69 -27.5t27 -78.5q-2 -43 -28.5 -74t-71.5 -32q-42 -2 -69.5 27t-25.5 76z" />
<glyph unicode="@" horiz-adv-x="1538" d="M62 178l1 94q8 211 77 427.5t188 387.5t273 259t328 85q235 -4 365 -166.5t139 -462.5v-95q-11 -224 -68.5 -391.5t-152 -254t-215.5 -82.5q-75 2 -120.5 44t-55.5 115l-40 -52q-87 -108 -185 -108q-85 2 -131.5 66.5t-49.5 192.5q-4 170 62.5 363t165.5 292.5t219 97.5 q74 -2 128.5 -30.5t107.5 -77.5l-128 -555q-16 -81 -14 -135q4 -93 70 -96q105 -5 176.5 118.5t102.5 367.5q20 154 13 271q-13 218 -112.5 330.5t-280.5 115.5q-157 3 -292 -81.5t-236.5 -254t-157 -399.5t-44.5 -430q10 -225 107.5 -342t270.5 -119q145 -2 288 78l22 -117 q-120 -87 -312 -87q-238 4 -369 167t-140 464zM567 240q4 -118 86 -121q50 -2 99.5 55t74.5 135l4 19l122 513q-40 21 -78 23q-114 4 -190 -122t-113 -390q-8 -57 -5 -112z" />
<glyph unicode="A" horiz-adv-x="1155" d="M-66 0l707 1456h154l203 -1456h-177l-45 380h-476l-176 -380h-190zM374 538h383l-77 660z" />
<glyph unicode="B" horiz-adv-x="1093" d="M48 0l252 1456l391 -1q177 -5 263 -104q74 -85 74 -227q0 -23 -2 -48q-18 -204 -238 -314q80 -35 120 -125q32 -72 31 -162q0 -23 -2 -47q-15 -197 -139 -313q-122 -115 -313 -115h-3h-434zM254 157l232 -2q136 1 212 105q66 89 66 217q0 20 -2 41q-14 154 -158 162 l-259 1zM371 835l219 -2q82 2 144.5 46.5t91.5 122.5q22 58 22 120q0 21 -3 42q-16 127 -158 133l-235 1z" />
<glyph unicode="C" horiz-adv-x="1136" d="M113 454v14q0 64 8 125l40 257q47 299 198 465q147 161 363 161h13q185 -4 283 -132q89 -118 90 -319q0 -19 -1 -38l-180 1q1 21 1 41q0 95 -16 148q-20 65 -65 102.5t-123 39.5h-12q-142 1 -236 -113q-98 -118 -134 -355l-40 -259q-11 -79 -11 -147q0 -23 1 -44 q8 -131 62.5 -197t147.5 -69h16q120 0 194 69q80 74 119 257l176 2q-33 -229 -169 -359q-130 -125 -328 -124h-18q-116 3 -201 61t-130.5 168t-47.5 245z" />
<glyph unicode="D" horiz-adv-x="1144" d="M48 0l252 1456l326 -1q231 -5 345 -171q88 -127 87 -316q0 -56 -7 -118l-35 -234q-45 -299 -211 -458q-165 -158 -419 -158h-3h-335zM254 157l131 -1h6q182 0 296 112q116 114 151 342l37 244q8 66 8 131v26q-5 133 -71.5 207.5t-190.5 78.5l-169 1z" />
<glyph unicode="E" horiz-adv-x="996" d="M48 0l252 1456h752l-28 -158h-572l-82 -468h500l-27 -157h-499l-90 -516h582l-28 -157h-760z" />
<glyph unicode="F" horiz-adv-x="964" d="M48 0l252 1456h737l-28 -158h-557l-87 -498h478l-28 -157h-477l-111 -643h-179z" />
<glyph unicode="G" horiz-adv-x="1184" d="M114 445v27q0 59 7 119l45 287q46 288 183 442q140 156 367 156h14q188 -6 288 -124q95 -113 95 -308v-16l-178 1q0 148 -55.5 217t-158.5 72h-18q-137 0 -226 -99q-95 -106 -132 -338l-46 -305l-6 -82v-69q16 -284 235 -288h11q73 0 130 23q62 26 123 73l61 336h-259 l28 156h435l-84 -543q-42 -57 -97 -97q-144 -105 -344 -105h-11q-187 2 -294 127t-113 338z" />
<glyph unicode="H" horiz-adv-x="1242" d="M48 0l252 1456h179l-109 -626h568l108 626h180l-253 -1456h-179l117 673h-567l-117 -673h-179z" />
<glyph unicode="I" horiz-adv-x="507" d="M55 0l253 1456h179l-253 -1456h-179z" />
<glyph unicode="J" horiz-adv-x="970" d="M30 402h179q-2 -23 -2 -44q0 -97 35 -152q41 -67 126 -70h8q90 0 153 70q66 72 91 218l175 1032h180l-175 -1031q-31 -212 -151 -331q-115 -115 -279 -115h-14q-169 6 -254 119q-74 98 -74 252q0 25 2 52z" />
<glyph unicode="K" horiz-adv-x="1093" d="M48 0l252 1456h179l-121 -692l144 157l466 535h228l-579 -651l350 -805h-202l-277 669l-177 -180l-84 -489h-179z" />
<glyph unicode="L" horiz-adv-x="954" d="M48 0l252 1456h180l-225 -1299h554l-28 -157h-733z" />
<glyph unicode="M" horiz-adv-x="1511" d="M48 0l252 1456h227l162 -1186l574 1186h234l-253 -1456h-179l100 576l111 541l-559 -1117h-137l-172 1140l-85 -582l-96 -558h-179z" />
<glyph unicode="N" horiz-adv-x="1240" d="M48 0l252 1456h175l374 -1135l197 1135h178l-252 -1456h-175l-373 1130l-196 -1130h-180z" />
<glyph unicode="O" horiz-adv-x="1203" d="M116 455v15q0 66 8 130l42 272q50 290 196 450q142 155 357 154h13q171 -4 271 -113t116 -310l3 -54q0 -74 -9 -146l-43 -277q-51 -291 -196 -446q-140 -150 -354 -150h-14q-182 4 -284.5 130t-105.5 345zM293 504q-1 -25 -1 -49q0 -135 48 -215q58 -94 177 -98h12 q282 0 359 409l47 306l9 97q1 26 1 50q0 138 -48 214q-57 90 -176 94h-13q-140 0 -232 -106q-96 -112 -133 -332l-43 -289z" />
<glyph unicode="P" horiz-adv-x="1111" d="M48 0l252 1456l439 -1q179 -7 276 -127q83 -103 82 -254q0 -27 -2 -55q-18 -208 -149 -329t-337 -121l-283 1l-99 -570h-179zM353 727l263 -2q99 0 172 51.5t107 147.5q25 71 25 142q0 25 -3 51q-10 81 -57 128.5t-125 51.5l-283 1z" />
<glyph unicode="Q" horiz-adv-x="1203" d="M107 458v15q0 65 8 128l38 247q46 299 194 466q144 162 363 162h13q184 -4 286.5 -130t104.5 -347q0 -74 -9 -146l-42 -270q-32 -194 -102 -317.5t-182 -198.5l177 -200l-132 -113l-211 238q-66 -11 -119 -11q-180 2 -282 129t-105 348zM285 505q-2 -26 -2 -50 q0 -137 49 -216q56 -93 175 -97h17q136 0 228 102q97 110 134 344l41 268q11 88 11 155q0 23 -1 43q-20 251 -224 258h-12q-142 0 -235 -110q-97 -114 -133 -340l-41 -276z" />
<glyph unicode="R" horiz-adv-x="1064" d="M48 0l252 1456l385 -1q188 -6 282 -121q78 -96 79 -245q0 -30 -4 -63q-13 -139 -87 -240t-201 -158l169 -615l-1 -13h-192l-149 589h-251l-103 -589h-179zM357 746l207 -2q95 2 167.5 51t107.5 139q27 68 27 145q0 24 -3 49q-8 76 -54.5 120.5t-128.5 48.5l-227 1z" />
<glyph unicode="S" horiz-adv-x="1039" d="M55 423l180 -1q-2 -20 -2 -39q0 -102 50 -167q59 -77 175 -79h13q101 0 173 61q76 65 90 178q2 19 2 37q0 67 -32 115q-41 62 -170 118t-197 115q-130 112 -130 277q0 16 1 33q14 177 144 293q125 113 300 112h12q176 -4 278 -128q90 -110 91 -271q0 -20 -2 -42h-180 q2 23 2 43q0 106 -43 166q-51 72 -156 74h-6q-104 0 -175 -66q-73 -68 -85 -178q-2 -14 -1 -28q0 -64 39 -116q48 -62 167.5 -113t187.5 -107q135 -110 134 -290q0 -20 -1 -42q-16 -178 -144 -290q-124 -108 -309 -108h-13q-183 4 -293 128q-101 114 -101 284q0 15 1 31z " />
<glyph unicode="T" horiz-adv-x="1044" d="M178 1298l28 158h921l-28 -158h-371l-225 -1298h-179l225 1298h-371z" />
<glyph unicode="U" horiz-adv-x="1126" d="M112 430l174 1026h178l-174 -1027q-4 -32 -3 -62q0 -26 2 -50q17 -175 202 -181h16q116 0 190 66q79 72 103 215l176 1039h180l-175 -1025q-29 -213 -163 -335q-130 -118 -324 -118h-13q-193 4 -293 124q-81 98 -80 253q0 36 4 75z" />
<glyph unicode="V" horiz-adv-x="1123" d="M177 1456h189l137 -1173l507 1173h202l-668 -1456h-156z" />
<glyph unicode="W" horiz-adv-x="1523" d="M204 1456h175l20 -1008l-7 -145l51 143l383 1010h149l61 -1024l4 -138l50 175l325 987h183l-510 -1456h-161l-70 1069v74l-29 -87l-408 -1056h-163z" />
<glyph unicode="X" horiz-adv-x="1104" d="M-33 0l499 743l-254 713h199l180 -557l353 557h219l-487 -731l257 -725h-202l-182 567l-361 -567h-221z" />
<glyph unicode="Y" horiz-adv-x="1052" d="M182 1456h194l161 -729l416 729h211l-567 -924l-92 -532h-179l97 554z" />
<glyph unicode="Z" horiz-adv-x="1048" d="M-16 0l27 154l836 1144h-632l28 158h836l-27 -151l-837 -1148h665l-28 -157h-868z" />
<glyph unicode="[" horiz-adv-x="508" d="M-10 -312l309 1976h323l-24 -152h-150l-261 -1672h150l-24 -152h-323z" />
<glyph unicode="\" horiz-adv-x="743" d="M201 1456h156l221 -1581h-155z" />
<glyph unicode="]" horiz-adv-x="508" d="M-114 -312l24 152h152l261 1672h-152l24 152h324l-309 -1976h-324z" />
<glyph unicode="^" horiz-adv-x="747" d="M85 729l371 727h116l116 -727h-150l-61 480l-226 -480h-166z" />
<glyph unicode="_" horiz-adv-x="814" d="M-108 -151l27 151h759l-27 -151h-759z" />
<glyph unicode="`" horiz-adv-x="624" d="M208 1536h205l142 -294h-142z" />
<glyph unicode="a" horiz-adv-x="962" d="M62 287q11 168 138.5 269t334.5 101h120l17 115q2 19 2 36q0 143 -137 143q-79 0 -131.5 -46.5t-66.5 -121.5l-171 -1q12 137 124 230q109 91 257 91h6q147 -1 225 -89q66 -73 66 -196q0 -23 -3 -49l-88 -533q-7 -47 -7 -90v-19l6 -110l-2 -17h-174q-6 30 -5 59l4 59 q-115 -139 -248 -139q-131 1 -203 85q-65 76 -65 196q0 13 1 27zM240 240q13 -101 125 -101q130 0 224 127l45 259l-79 1q-102 0 -181 -38q-80 -38 -112 -104q-25 -51 -25 -108q1 -18 3 -36z" />
<glyph unicode="b" horiz-adv-x="990" d="M24 0l267 1536h172l-109 -573q104 139 250 139h8q140 -2 212 -104q68 -96 68 -275v-20q-4 -107 -24 -239t-59 -226q-106 -258 -341 -258h-13q-166 6 -235 149l-37 -129h-159zM246 281q47 -141 174 -146h13q108 1 175 83q72 88 94 276q21 174 20 239v11q-5 105 -46 153 t-119 50h-5q-124 0 -218 -149z" />
<glyph unicode="c" horiz-adv-x="928" d="M74 298q-5 43 -5 86q0 47 6 95l14 109q33 253 155 386q117 128 302 128h14q150 -4 232 -110q76 -98 76 -256v-27l-163 1v17q0 219 -155 224h-12q-224 0 -272 -335q-26 -178 -26 -261q0 -16 1 -29q10 -194 173 -197h9q79 0 134 53q58 56 81 158l163 1q-23 -160 -135 -263 q-108 -99 -251 -99h-11q-143 3 -228 86t-102 233z" />
<glyph unicode="d" horiz-adv-x="996" d="M70 380q0 89 23 236t71 249q111 236 337 236h13q149 -4 222 -126l104 561h173l-266 -1536h-157l19 116q-104 -136 -249 -136h-8q-135 2 -208.5 105t-73.5 295zM242 337q5 -199 165 -202h7q53 1 102 29q52 30 105 104l94 548q-50 125 -167 130h-15q-223 0 -271 -348 q-21 -151 -21 -235q0 -14 1 -26z" />
<glyph unicode="e" horiz-adv-x="940" d="M89 463l13 107q32 252 154 394q118 138 298 138h13q153 -4 231 -106q74 -97 74 -267v-18l-9 -120l-15 -103l-580 1q-12 -84 -12 -134v-7q2 -101 50 -158.5t137 -58.5h9q60 -1 118 25q62 28 131 97l81 -113q-64 -84 -158 -123q-89 -37 -187 -37h-10q-182 2 -272 131 q-71 102 -71 262q0 43 5 90zM281 640l415 -1l5 26q6 46 6 96q-4 182 -151 190h-12q-167 0 -236 -214z" />
<glyph unicode="f" horiz-adv-x="639" d="M99 0l163 939h-137l25 143h137l14 107q24 180 117 276q92 94 233 94h6q52 -2 112 -19l-25 -149q-40 10 -80 12q-154 0 -189 -219l-16 -102h180l-25 -143h-179l-163 -939h-173z" />
<glyph unicode="g" horiz-adv-x="989" d="M2 -285l82 119q97 -106 221 -110h13q100 0 166 61q71 65 94 196l26 126q-104 -127 -242 -127h-8q-139 2 -212 108q-70 103 -70 281v10q0 79 19 216q35 251 141 381q103 126 269 126h13q159 -4 229 -142l36 122h157l-185 -1091q-17 -128 -75.5 -225t-151.5 -147 q-86 -46 -195 -46h-17q-85 2 -171 41.5t-139 100.5zM244 337q5 -199 164 -202h5q117 0 210 135l93 543q-52 128 -166 133h-11q-230 0 -276 -354q-20 -149 -20 -229q0 -14 1 -26z" />
<glyph unicode="h" horiz-adv-x="969" d="M23 0l267 1536h173l-107 -566q118 131 255 131h8q104 -1 163.5 -68.5t67.5 -188.5q1 -25 1 -50q0 -43 -4 -85l-118 -709h-172l119 712l4 79q0 153 -126 156h-5q-100 0 -187 -117l-30 -43l-136 -787h-173z" />
<glyph unicode="i" horiz-adv-x="465" d="M37 0l188 1082h173l-188 -1082h-173zM265 1368q2 43 28 75t71 34h5q40 0 66 -29t26 -71v-6q-2 -44 -28.5 -75.5t-71.5 -32.5h-5q-40 0 -66 29q-25 29 -25 70v6z" />
<glyph unicode="j" horiz-adv-x="454" d="M-194 -420l15 148q47 -11 69 -11q89 0 115 130l210 1235h173l-205 -1210q-22 -162 -91 -238q-67 -74 -175 -74h-8q-43 2 -103 20zM250 1367q2 43 27.5 75.5t71.5 34.5h5q39 0 65 -28t26 -73v-6q-2 -43 -28 -74.5t-72 -32.5h-5q-42 0 -66 29q-24 30 -24 69v6z" />
<glyph unicode="k" horiz-adv-x="905" d="M24 0l267 1536h173l-158 -907l398 453h221l-422 -462l265 -620h-189l-199 492l-117 -113l-66 -379h-173z" />
<glyph unicode="l" horiz-adv-x="465" d="M37 0l267 1536h173l-267 -1536h-173z" />
<glyph unicode="m" horiz-adv-x="1505" d="M24 0l188 1082l161 1l-21 -101q111 120 257 120h9q79 -2 138.5 -41t84.5 -115q127 157 291 157h4q109 -3 172 -69t73 -184q3 -32 3 -64q0 -37 -4 -75l-119 -711h-171l118 713l3 84q-2 71 -37.5 110.5t-101.5 39.5h-5q-76 0 -137 -64q-63 -66 -77 -157v-5l-123 -721h-174 l119 712q3 27 3 54q0 14 -1 28q-7 147 -136 152h-4q-121 0 -201 -134l-140 -812h-172z" />
<glyph unicode="n" horiz-adv-x="971" d="M23 0l188 1082l162 1l-23 -118q116 137 264 137h4q103 -1 163.5 -70t68.5 -188q1 -25 1 -50q0 -43 -4 -85l-118 -709h-172l119 712l4 79q0 153 -126 156h-5q-100 0 -187 -117l-30 -43l-136 -787h-173z" />
<glyph unicode="o" horiz-adv-x="1007" d="M82 489l12 100q34 233 160 375q122 138 306 138h13q120 -3 200 -70q81 -66 115 -183q24 -80 23 -171q0 -42 -5 -87l-12 -102q-33 -232 -160 -373q-123 -136 -306 -136h-13q-120 3 -200 69q-81 66 -115 183q-24 80 -23 171q0 42 5 86zM249 416v-17q-1 -122 41 -191 q44 -74 135 -78h12q108 0 180 82q76 88 102 263l15 117l5 72v16q-1 123 -43 193q-46 74 -134 78h-11q-111 1 -185 -97q-78 -102 -102 -285l-12 -99z" />
<glyph unicode="p" horiz-adv-x="990" d="M-48 -416l260 1498l155 1l-20 -121q108 141 259 141h4q144 -2 215 -107q65 -98 65 -264v-29q-3 -87 -23 -227t-59 -235q-107 -262 -343 -262h-12q-154 4 -232 125l-97 -520h-172zM241 254q48 -118 166 -124h12q109 0 180 83q75 88 99 274q21 159 21 235q0 13 -1 23 q-15 198 -170 201h-5q-115 0 -205 -127z" />
<glyph unicode="q" horiz-adv-x="1004" d="M71 377q1 84 22.5 230t67.5 250q110 245 345 245h13q152 -4 224 -127l33 107h159l-260 -1498h-173l98 511q-101 -115 -233 -115h-9q-143 2 -216 108q-71 102 -71 275v14zM243 336q10 -203 168 -206h5q110 0 202 119l100 583q-53 114 -162 119h-12q-110 0 -181 -84 q-75 -89 -99 -271q-22 -157 -22 -236q0 -13 1 -24z" />
<glyph unicode="r" horiz-adv-x="614" d="M23 0l188 1082l167 1l-24 -111q93 132 209 132h5q24 -1 74 -15l-19 -172q-43 9 -77 9q-131 0 -216 -151l-134 -775h-173z" />
<glyph unicode="s" horiz-adv-x="915" d="M49 324l174 -1v-8q0 -89 41 -135q43 -48 122 -48q83 0 137.5 42t63.5 111q1 9 1 18q0 83 -107 140l-134 70q-103 58 -145 123q-37 58 -38 133q0 9 1 18q8 137 112 227q101 88 247 88h7q145 -4 227 -96q76 -85 76 -214v-19h-171v8q0 75 -36 119q-38 46 -106 49 q-77 0 -127 -43.5t-60 -112.5l-2 -18q0 -69 81 -115l169 -86q178 -99 177 -259v-17q-10 -146 -118 -234q-103 -84 -250 -84h-13q-149 2 -242 98q-87 90 -87 228v18z" />
<glyph unicode="t" horiz-adv-x="597" d="M80 939l26 143h159l46 262h172l-46 -262h159l-25 -143h-158l-114 -673l-2 -40v-10q0 -75 61 -75h4q24 0 68 10l-15 -151q-51 -18 -103 -18h-10q-91 0 -137 75q-36 59 -36 158q0 26 2 54l110 670h-161z" />
<glyph unicode="u" horiz-adv-x="970" d="M87 292l5 91l117 699h171l-116 -702l-4 -73q-1 -9 -1 -18q1 -61 25 -103q28 -48 82 -49h13q136 0 225 143l138 802h173l-187 -1082h-163l19 95q-102 -116 -249 -116h-10q-115 2 -176.5 84t-61.5 229z" />
<glyph unicode="v" horiz-adv-x="860" d="M123 1082h170l79 -811l325 811h182l-481 -1082h-129z" />
<glyph unicode="w" horiz-adv-x="1301" d="M134 1082h165l32 -748l325 748h137l65 -769l293 769h176l-445 -1082h-138l-69 772l-334 -772h-139z" />
<glyph unicode="x" horiz-adv-x="882" d="M-49 0l385 556l-198 526h189l114 -393l241 393h209l-376 -544l204 -538h-189l-121 404l-249 -404h-209z" />
<glyph unicode="y" horiz-adv-x="837" d="M-88 -422l17 150l37 -6h11q123 0 193 134l73 164l-122 1062h182l56 -785l328 785h189l-560 -1250q-57 -136 -136 -206q-75 -66 -162 -66h-8q-31 1 -98 18z" />
<glyph unicode="z" horiz-adv-x="882" d="M-13 0l25 146l611 783h-472l28 153h680l-25 -141l-618 -790h501l-27 -151h-703z" />
<glyph unicode="{" horiz-adv-x="618" d="M64 541l16 145q177 10 210 238l30 223q51 348 362 452l24 -117q-178 -76 -215 -350l-32 -233q-35 -194 -191 -288q89 -79 95 -222l-3 -84q-33 -252 -36 -305q-11 -190 111 -251l-41 -114q-208 85 -235 318q-8 75 1 146l28 207l4 82q-4 140 -128 153z" />
<glyph unicode="|" horiz-adv-x="494" d="M33 -270l270 1726h146l-270 -1726h-146z" />
<glyph unicode="}" horiz-adv-x="618" d="M-96 -251q179 75 217 350l31 227q34 203 203 294q-99 72 -106 220q-2 43 2 85q34 251 37 306q7 191 -113 251l44 113q102 -41 161 -122t72 -195q7 -71 -1 -146l-30 -224l-2 -65q0 -142 128 -153l-16 -145q-179 -10 -210.5 -244t-37.5 -261q-65 -312 -354 -408z" />
<glyph unicode="~" horiz-adv-x="1181" d="M99 436q10 102 51.5 188t107 133.5t150.5 45.5q121 -3 232 -140q47 -61 75 -80t58 -19q61 -1 103.5 53.5t58.5 158.5l140 1q-10 -104 -55 -195.5t-110.5 -137t-143.5 -43.5q-64 2 -122 37t-137 135q-53 67 -107 67q-120 3 -153 -201z" />
<glyph unicode="&#xa1;" horiz-adv-x="470" d="M-23 -360l193 1044h157l-169 -1044h-181zM200 995q2 43 28.5 74.5t71.5 32.5q43 2 71 -28.5t26 -75.5q-2 -44 -28.5 -76t-71.5 -34q-43 -2 -71 29t-26 78z" />
<glyph unicode="&#xa2;" horiz-adv-x="963" d="M88 365q-7 175 38.5 335.5t138 259.5t222.5 131l45 227h172l-45 -226q109 -33 167 -135.5t53 -247.5h-162q3 110 -39.5 174.5t-117.5 67.5q-137 5 -215 -134t-89 -387v-70q3 -112 47 -170.5t121 -60.5q79 -2 139.5 57.5t84.5 153.5l163 1q-21 -131 -108.5 -225.5 t-224.5 -127.5l-46 -233h-172l47 239q-101 34 -158 131.5t-61 239.5z" />
<glyph unicode="&#xa3;" horiz-adv-x="1025" d="M-9 0l23 156l56 -2q47 21 77 78.5t46 169.5l31 220h-128l28 157h123l33 253q27 207 147 328t289 116q145 -3 224.5 -107.5t70.5 -282.5l-179 1q8 106 -29.5 168t-115.5 65q-87 3 -149 -76.5t-80 -218.5l-32 -246h253l-28 -157h-248l-29 -218q-24 -149 -101 -250l600 3 l-29 -157h-853z" />
<glyph unicode="&#xa4;" horiz-adv-x="1426" d="M18 118l159 134q-30 85 -40 172q-19 150 25.5 294.5t148.5 261.5l-117 157l141 127l114 -148q179 122 361 118q188 -2 325 -121l175 152l111 -146l-173 -147q32 -87 44 -176q18 -144 -22.5 -285t-139.5 -261l115 -150l-143 -127l-106 137q-187 -134 -377 -130 q-199 4 -335 130l-157 -136zM304 599q-15 -114 22 -218t116.5 -165.5t187.5 -65.5q117 -4 224.5 59t180 174t88.5 234q14 115 -22.5 218t-115.5 163.5t-187 64.5q-118 4 -226 -59t-180 -173t-88 -232z" />
<glyph unicode="&#xa5;" horiz-adv-x="931" d="M70 322l23 124h247l29 165h-248l22 125h210l-171 720h192l124 -622l342 622h206l-421 -720h199l-22 -125h-253l-29 -165h254l-22 -124h-253l-56 -322h-180l56 322h-249z" />
<glyph unicode="&#xa6;" horiz-adv-x="486" d="M-9 -270l138 791h182l-138 -791h-182zM159 698l132 758h182l-132 -758h-182z" />
<glyph unicode="&#xa7;" horiz-adv-x="1077" d="M-19 -64l172 2q-9 -126 46 -202.5t164 -78.5q105 -2 180 59t89 162q18 136 -142 211l-83 37q-185 75 -256 173t-58 244q17 185 197 285q-82 107 -66 274q15 170 142 274t310 100q177 -4 270.5 -117t80.5 -314h-171q10 124 -40.5 200.5t-149.5 79.5q-105 2 -179 -58 t-88 -162q-20 -142 126 -211l92 -39q185 -71 259 -170.5t62 -245.5q-17 -190 -201 -286q83 -105 69 -273q-15 -174 -141.5 -277t-310.5 -99q-185 4 -285.5 119.5t-87.5 312.5zM268 545q-21 -148 126 -218l212 -89q136 56 158 198q18 136 -130 214l-58 28l-158 64 q-129 -50 -150 -197z" />
<glyph unicode="&#xa8;" horiz-adv-x="840" d="M218 1369q1 46 30 76.5t77 32.5q46 1 76.5 -28.5t29.5 -76.5q0 -46 -30 -76t-77 -32q-47 -1 -76.5 28t-29.5 76zM635 1367q1 46 30 77t76 33q48 1 78 -28.5t29 -77.5q0 -47 -30 -76.5t-77 -31.5q-46 -1 -76.5 28t-29.5 76z" />
<glyph unicode="&#xa9;" horiz-adv-x="1571" d="M119 722q22 199 136 377t289 279.5t369 97.5q178 -2 320 -100t213 -271.5t50 -369.5q-23 -203 -137 -380t-286 -277t-360 -99h-10q-183 4 -323 102t-211 271.5t-50 369.5zM230 570q22 -207 152 -338.5t320 -133.5q187 -4 353.5 107.5t258 302t71.5 380.5 q-22 205 -150 334t-321 134q-189 4 -355.5 -108t-257.5 -300t-71 -378zM453 670l10 98q20 189 123.5 298.5t260.5 107.5q142 -4 219.5 -85.5t71.5 -229.5l-143 1q6 85 -28.5 134t-124.5 51q-95 2 -158.5 -70.5t-78 -200t-13.5 -157.5l2 -35q7 -77 46.5 -122t107.5 -48 q170 -7 205 184l140 1q-14 -151 -107 -234.5t-242 -79.5q-145 4 -225 112t-66 275z" />
<glyph unicode="&#xaa;" horiz-adv-x="797" d="M193 910q5 116 87.5 178t220.5 62l82 -1l10 54l4 43q0 89 -64 91q-94 2 -120 -105l-148 11q10 107 85 171.5t186 62.5q103 -3 159 -73.5t50 -187.5l-1 -16l-48 -314q-8 -46 -9 -91q-2 -45 3 -91l-147 -1v69q-77 -82 -167 -82q-88 0 -137.5 62.5t-45.5 157.5zM346 915 q-5 -38 12 -63.5t58 -25.5q57 0 127 62l29 149h-67q-65 -2 -108.5 -34.5t-50.5 -87.5z" />
<glyph unicode="&#xab;" horiz-adv-x="840" d="M86 538l2 20l303 389h137l-281 -410l132 -386h-114zM361 538l2 20l303 389h137l-281 -410l132 -386h-114z" />
<glyph unicode="&#xac;" horiz-adv-x="978" d="M129 639l29 161h685l-74 -425h-174l46 264h-512z" />
<glyph unicode="&#xad;" horiz-adv-x="503" d="M35 543l27 151h402l-27 -151h-402z" />
<glyph unicode="&#xae;" horiz-adv-x="1572" d="M118 722q22 199 136 377t289 279.5t369 97.5q175 -2 316.5 -97.5t215 -269t51.5 -374.5q-23 -204 -138 -381.5t-288.5 -278.5t-365.5 -97q-179 4 -319 99.5t-213.5 270.5t-52.5 374zM229 569q12 -131 76.5 -241t167 -169t228.5 -62q187 -4 352 106t258 300t74 385 q-14 133 -78.5 241t-166 166t-227.5 61q-185 4 -350 -103t-259.5 -297.5t-74.5 -386.5zM463 316l133 849l257 -1q139 -5 213.5 -69.5t67.5 -178.5q-3 -58 -37 -106t-115 -94q77 -44 86 -141l-1 -61q-11 -87 -9 -118l3 -64l-2 -17h-138q-6 37 -4 73l7 72l6 54q7 66 -17 100.5 t-92 38.5l-167 1l-53 -338h-138zM673 782l143 -1q72 2 122.5 36.5t59.5 92.5q10 63 -22.5 94t-121.5 34h-140z" />
<glyph unicode="&#xaf;" horiz-adv-x="833" d="M246 1302l23 143h564l-22 -143h-565z" />
<glyph unicode="&#xb0;" horiz-adv-x="752" d="M236 1207q4 111 84.5 191.5t183.5 78.5q97 -2 160.5 -76.5t61.5 -175.5q-4 -112 -83.5 -190t-181.5 -76q-98 2 -163.5 74.5t-61.5 173.5zM357 1209q-6 -49 24.5 -85.5t79.5 -36.5q54 0 96.5 40t48.5 96q6 48 -22 87.5t-80 39.5q-54 0 -97.5 -42.5t-49.5 -98.5z" />
<glyph unicode="&#xb1;" horiz-adv-x="943" d="M37 0l24 152h682l-24 -152h-682zM117 703l24 151h305l65 413h155l-65 -413h289l-25 -151h-287l-65 -414h-155l65 414h-306z" />
<glyph unicode="&#xb2;" horiz-adv-x="665" d="M95 667l20 117l271 264l38 40q77 81 87 150l1 37q-7 67 -66 67q-97 0 -125 -135l-146 -1q13 118 87 191.5t183 71.5q100 0 161 -62.5t55 -167.5q-4 -64 -38.5 -124t-115.5 -138l-197 -182h306l-23 -128h-498z" />
<glyph unicode="&#xb3;" horiz-adv-x="665" d="M119 890h143q-2 -103 89 -105q52 0 86.5 33t41.5 84q12 103 -93 107h-75l10 116h69q53 3 88 33.5t42 84.5q5 41 -13 68.5t-63 28.5q-78 0 -109 -92l-147 -1q10 100 80 162t174 60q103 -2 166 -61t57 -158q-7 -115 -138 -184q97 -43 92 -171q-4 -107 -82 -174t-194 -65 q-106 2 -166 66.5t-58 167.5z" />
<glyph unicode="&#xb4;" horiz-adv-x="633" d="M213 1242l234 294h231l-306 -294h-159z" />
<glyph unicode="&#xb5;" horiz-adv-x="1000" d="M-34 -416l260 1498h172l-102 -624q-11 -87 -12 -126q-5 -200 115 -203q136 -5 218 134l142 819h174l-188 -1082h-154l17 102q-92 -124 -214 -124q-108 2 -169 70l-87 -464h-172z" />
<glyph unicode="&#xb6;" horiz-adv-x="873" d="M141 980q20 213 149 345t320 132l251 -1l-253 -1456h-174l96 521h-59q-113 2 -192 61.5t-114.5 164t-23.5 233.5z" />
<glyph unicode="&#xb7;" horiz-adv-x="493" d="M156 726q1 47 28 80.5t76 35.5q44 2 73.5 -29t29.5 -81q0 -47 -28 -79.5t-76 -34.5q-43 -2 -73 28t-30 80z" />
<glyph unicode="&#xb8;" horiz-adv-x="465" d="M-50 -437l5 108q132 11 145 107q10 67 -67 81l-42 7l42 134h123l-19 -55q47 -13 72.5 -55.5t23.5 -107.5q-3 -99 -76.5 -156.5t-206.5 -62.5z" />
<glyph unicode="&#xb9;" horiz-adv-x="665" d="M221 1208l24 135l310 113h21l-132 -789h-146l104 597z" />
<glyph unicode="&#xba;" horiz-adv-x="810" d="M201 1043l7 68q17 168 107 269t221 97q122 -3 189 -101.5t55 -252.5l-8 -80q-20 -163 -108 -260t-218 -94q-123 3 -190 103t-55 251zM352 976q0 -66 27.5 -107t76.5 -42q66 -2 110 58t54.5 165.5t10.5 139.5q-2 66 -28.5 106t-75.5 42q-69 2 -113 -61t-55 -173l-6 -63z " />
<glyph unicode="&#xbb;" horiz-adv-x="840" d="M15 152l281 408l-132 389h116l179 -388l-2 -20l-303 -389h-139zM309 152l281 408l-132 389h116l179 -388l-2 -20l-303 -389h-139z" />
<glyph unicode="&#xbc;" horiz-adv-x="1276" d="M182 1205l24 135l310 113h21l-132 -789h-146l104 597zM223 192l770 1128l91 -72l-772 -1128zM590 169l14 112l384 507l148 1l-85 -491l88 1l-24 -130h-81l-30 -169h-145l30 169h-299zM756 299h155l55 281l-14 -20z" />
<glyph unicode="&#xbd;" horiz-adv-x="1356" d="M181 1205l24 135l310 113h21l-132 -789h-146l104 597zM187 192l770 1128l91 -72l-772 -1128zM639 0l20 117l271 264l38 40q77 81 87 150l1 37q-7 67 -66 67q-97 0 -125 -135l-146 -1q13 118 87 191.5t183 71.5q100 0 161 -62.5t55 -167.5q-4 -64 -38.5 -124t-115.5 -138 l-197 -182h306l-23 -128h-498z" />
<glyph unicode="&#xbe;" horiz-adv-x="1348" d="M160 890h143q-2 -103 89 -105q52 0 86.5 33t41.5 84q12 103 -93 107h-75l10 116h69q53 3 88 33.5t42 84.5q5 41 -13 68.5t-63 28.5q-78 0 -109 -92l-147 -1q10 100 80 162t174 60q103 -2 166 -61t57 -158q-7 -115 -138 -184q97 -43 92 -171q-4 -107 -82 -174t-194 -65 q-106 2 -166 66.5t-58 167.5zM321 192l770 1128l91 -72l-772 -1128zM657 169l14 112l384 507l148 1l-85 -491l88 1l-24 -130h-81l-30 -169h-145l30 169h-299zM823 299h155l55 281l-14 -20z" />
<glyph unicode="&#xbf;" horiz-adv-x="847" d="M-26 -14q15 173 176 350l107 113q77 88 99 231l169 1q-12 -104 -53.5 -188t-140 -192t-131.5 -166q-60 -104 -51 -220q11 -139 132 -142q75 -2 129 55t71 151l170 1q-20 -167 -124.5 -268.5t-257.5 -97.5q-152 4 -231 106t-64 266zM396 995q2 44 28.5 74.5t71.5 32.5 q42 2 69.5 -28.5t25.5 -75.5q-2 -43 -27.5 -75.5t-71.5 -33.5q-42 -2 -70 28t-26 78z" />
<glyph unicode="&#xc0;" horiz-adv-x="1155" d="M-66 0l707 1456h154l203 -1456h-177l-45 380h-476l-176 -380h-190zM374 538h383l-77 660zM493 1846h205l142 -294h-142z" />
<glyph unicode="&#xc1;" horiz-adv-x="1155" d="M-66 0l707 1456h154l203 -1456h-177l-45 380h-476l-176 -380h-190zM374 538h383l-77 660zM636 1552l234 294h231l-306 -294h-159z" />
<glyph unicode="&#xc2;" horiz-adv-x="1155" d="M-66 0l707 1456h154l203 -1456h-177l-45 380h-476l-176 -380h-190zM374 538h383l-77 660zM492 1561v14l242 271h99l169 -272v-14l-138 2l-84 169l-148 -168z" />
<glyph unicode="&#xc3;" horiz-adv-x="1155" d="M-66 0l707 1456h154l203 -1456h-177l-45 380h-476l-176 -380h-190zM374 538h383l-77 660zM451 1563q11 110 65 180t136 68q46 -2 107 -51.5t107 -47.5q67 3 98 113l107 -10q-11 -111 -63.5 -179t-134.5 -66q-33 0 -58.5 16t-49.5 35t-49 33.5t-56 13.5q-67 -3 -97 -112z " />
<glyph unicode="&#xc4;" horiz-adv-x="1155" d="M-66 0l707 1456h154l203 -1456h-177l-45 380h-476l-176 -380h-190zM374 538h383l-77 660zM449 1679q1 46 30 76.5t77 32.5q46 1 76.5 -28.5t29.5 -76.5q0 -46 -30 -76t-77 -32q-47 -1 -76.5 28t-29.5 76zM866 1677q1 46 30 77t76 33q48 1 78 -28.5t29 -77.5 q0 -47 -30 -76.5t-77 -31.5q-46 -1 -76.5 28t-29.5 76z" />
<glyph unicode="&#xc5;" horiz-adv-x="1155" d="M-66 0l707 1456h154l203 -1456h-177l-45 380h-476l-176 -380h-190zM374 538h383l-77 660zM565 1721q2 91 66.5 154t153.5 63q82 0 139.5 -58t57.5 -143q-2 -89 -66.5 -151t-153.5 -62q-84 0 -141.5 57t-55.5 140zM661 1723q-4 -46 23 -77.5t70 -31.5q46 0 85.5 35.5 t45.5 85.5q6 46 -22 79t-70 33q-46 0 -86 -36.5t-46 -87.5z" />
<glyph unicode="&#xc6;" horiz-adv-x="1623" d="M-112 0l970 1456h809l-27 -152h-563l-65 -471h481l-27 -151h-475l-74 -531h574l-27 -151h-741l49 353h-438l-225 -353h-221zM444 527h352l100 711z" />
<glyph unicode="&#xc7;" horiz-adv-x="1136" d="M113 454q-1 71 8 139l40 257q47 299 198 465t376 161q186 -3 283.5 -131.5t88.5 -357.5l-180 1q4 124 -15.5 189t-64.5 102.5t-123 39.5q-150 5 -248 -113.5t-134 -354.5l-40 -259q-15 -105 -10 -191q8 -131 62.5 -197t147.5 -69q131 -5 210.5 69t118.5 257l176 2 q-33 -228 -169.5 -358.5t-345.5 -124.5q-116 3 -201 61t-130.5 168t-47.5 245zM324 -446l5 108q132 11 145 107q10 67 -67 81l-42 7l42 134h123l-19 -55q47 -13 72.5 -55.5t23.5 -107.5q-3 -99 -76.5 -156.5t-206.5 -62.5z" />
<glyph unicode="&#xc8;" horiz-adv-x="996" d="M48 0l252 1456h752l-28 -158h-572l-82 -468h500l-27 -157h-499l-90 -516h582l-28 -157h-760zM443 1858h205l142 -294h-142z" />
<glyph unicode="&#xc9;" horiz-adv-x="996" d="M48 0l252 1456h752l-28 -158h-572l-82 -468h500l-27 -157h-499l-90 -516h582l-28 -157h-760zM586 1564l234 294h231l-306 -294h-159z" />
<glyph unicode="&#xca;" horiz-adv-x="996" d="M48 0l252 1456h752l-28 -158h-572l-82 -468h500l-27 -157h-499l-90 -516h582l-28 -157h-760zM442 1573v14l242 271h99l169 -272v-14l-138 2l-84 169l-148 -168z" />
<glyph unicode="&#xcb;" horiz-adv-x="996" d="M48 0l252 1456h752l-28 -158h-572l-82 -468h500l-27 -157h-499l-90 -516h582l-28 -157h-760zM399 1691q1 46 30 76.5t77 32.5q46 1 76.5 -28.5t29.5 -76.5q0 -46 -30 -76t-77 -32q-47 -1 -76.5 28t-29.5 76zM816 1689q1 46 30 77t76 33q48 1 78 -28.5t29 -77.5 q0 -47 -30 -76.5t-77 -31.5q-46 -1 -76.5 28t-29.5 76z" />
<glyph unicode="&#xcc;" horiz-adv-x="507" d="M55 0l253 1456h179l-253 -1456h-179zM167 1858h205l142 -294h-142z" />
<glyph unicode="&#xcd;" horiz-adv-x="507" d="M55 0l253 1456h179l-253 -1456h-179zM309 1564l234 294h231l-306 -294h-159z" />
<glyph unicode="&#xce;" horiz-adv-x="507" d="M55 0l253 1456h179l-253 -1456h-179zM166 1573v14l242 271h99l169 -272v-14l-138 2l-84 169l-148 -168z" />
<glyph unicode="&#xcf;" horiz-adv-x="507" d="M55 0l253 1456h179l-253 -1456h-179zM123 1691q1 46 30 76.5t77 32.5q46 1 76.5 -28.5t29.5 -76.5q0 -46 -30 -76t-77 -32q-47 -1 -76.5 28t-29.5 76zM540 1689q1 46 30 77t76 33q48 1 78 -28.5t29 -77.5q0 -47 -30 -76.5t-77 -31.5q-46 -1 -76.5 28t-29.5 76z" />
<glyph unicode="&#xd0;" horiz-adv-x="1174" d="M28 666l27 151h164l111 639l326 -1q231 -5 345 -170.5t80 -434.5l-35 -234q-45 -299 -211 -458t-422 -158h-335l115 666h-165zM284 157l131 -1q186 -2 302 111.5t151 342.5l37 244q10 79 8 157q-5 133 -71.5 207.5t-190.5 78.5l-169 1l-84 -481h184l-27 -151h-183z" />
<glyph unicode="&#xd1;" horiz-adv-x="1240" d="M48 0l252 1456h175l374 -1135l197 1135h178l-252 -1456h-175l-373 1130l-196 -1130h-180zM486 1563q11 110 65 180t136 68q46 -2 107 -51.5t107 -47.5q67 3 98 113l107 -10q-11 -111 -63.5 -179t-134.5 -66q-33 0 -58.5 16t-49.5 35t-49 33.5t-56 13.5q-67 -3 -97 -112z " />
<glyph unicode="&#xd2;" horiz-adv-x="1203" d="M116 455q-1 73 8 145l42 272q50 290 196.5 449.5t369.5 154.5q171 -4 271 -113t116 -310l3 -54q0 -74 -9 -146l-43 -277q-51 -291 -196 -446t-368 -150q-182 4 -284.5 130t-105.5 345zM293 504q-10 -171 47.5 -264.5t176.5 -97.5q293 -9 371 409l47 306l9 97 q10 175 -47 264.5t-176 93.5q-149 5 -245 -106.5t-133 -331.5l-43 -289zM517 1848h205l142 -294h-142z" />
<glyph unicode="&#xd3;" horiz-adv-x="1203" d="M116 455q-1 73 8 145l42 272q50 290 196.5 449.5t369.5 154.5q171 -4 271 -113t116 -310l3 -54q0 -74 -9 -146l-43 -277q-51 -291 -196 -446t-368 -150q-182 4 -284.5 130t-105.5 345zM293 504q-10 -171 47.5 -264.5t176.5 -97.5q293 -9 371 409l47 306l9 97 q10 175 -47 264.5t-176 93.5q-149 5 -245 -106.5t-133 -331.5l-43 -289zM660 1554l234 294h231l-306 -294h-159z" />
<glyph unicode="&#xd4;" horiz-adv-x="1203" d="M116 455q-1 73 8 145l42 272q50 290 196.5 449.5t369.5 154.5q171 -4 271 -113t116 -310l3 -54q0 -74 -9 -146l-43 -277q-51 -291 -196 -446t-368 -150q-182 4 -284.5 130t-105.5 345zM293 504q-10 -171 47.5 -264.5t176.5 -97.5q293 -9 371 409l47 306l9 97 q10 175 -47 264.5t-176 93.5q-149 5 -245 -106.5t-133 -331.5l-43 -289zM516 1563v14l242 271h99l169 -272v-14l-138 2l-84 169l-148 -168z" />
<glyph unicode="&#xd5;" horiz-adv-x="1203" d="M116 455q-1 73 8 145l42 272q50 290 196.5 449.5t369.5 154.5q171 -4 271 -113t116 -310l3 -54q0 -74 -9 -146l-43 -277q-51 -291 -196 -446t-368 -150q-182 4 -284.5 130t-105.5 345zM293 504q-10 -171 47.5 -264.5t176.5 -97.5q293 -9 371 409l47 306l9 97 q10 175 -47 264.5t-176 93.5q-149 5 -245 -106.5t-133 -331.5l-43 -289zM475 1565q11 110 65 180t136 68q46 -2 107 -51.5t107 -47.5q67 3 98 113l107 -10q-11 -111 -63.5 -179t-134.5 -66q-33 0 -58.5 16t-49.5 35t-49 33.5t-56 13.5q-67 -3 -97 -112z" />
<glyph unicode="&#xd6;" horiz-adv-x="1203" d="M116 455q-1 73 8 145l42 272q50 290 196.5 449.5t369.5 154.5q171 -4 271 -113t116 -310l3 -54q0 -74 -9 -146l-43 -277q-51 -291 -196 -446t-368 -150q-182 4 -284.5 130t-105.5 345zM293 504q-10 -171 47.5 -264.5t176.5 -97.5q293 -9 371 409l47 306l9 97 q10 175 -47 264.5t-176 93.5q-149 5 -245 -106.5t-133 -331.5l-43 -289zM473 1681q1 46 30 76.5t77 32.5q46 1 76.5 -28.5t29.5 -76.5q0 -46 -30 -76t-77 -32q-47 -1 -76.5 28t-29.5 76zM890 1679q1 46 30 77t76 33q48 1 78 -28.5t29 -77.5q0 -47 -30 -76.5t-77 -31.5 q-46 -1 -76.5 28t-29.5 76z" />
<glyph unicode="&#xd7;" horiz-adv-x="945" d="M44 338l326 334l-212 337l124 115l206 -330l321 329l94 -132l-329 -337l211 -334l-123 -115l-205 327l-318 -326z" />
<glyph unicode="&#xd8;" horiz-adv-x="1203" d="M25 -92l168 234q-86 172 -76 402q4 97 27.5 246t78.5 283q83 200 213.5 303.5t296.5 99.5q173 -4 277 -120l114 160l139 -1l-185 -258q38 -118 43 -240q6 -171 -34.5 -383.5t-124.5 -362t-200 -222.5t-257 -70q-134 4 -233 80l-108 -152zM289 496q-5 -93 13 -184l606 887 q-61 108 -185 114q-97 4 -178.5 -54t-138.5 -180.5t-84.5 -292.5t-32.5 -290zM365 206q57 -61 149 -65q155 -5 257.5 129.5t143.5 396.5t37 397z" />
<glyph unicode="&#xd9;" horiz-adv-x="1126" d="M112 430l174 1026h178l-174 -1027q-7 -60 -1 -112q17 -175 202 -181q127 -5 206 66.5t103 214.5l176 1039h180l-175 -1025q-29 -214 -163 -335.5t-337 -117.5q-193 4 -292.5 124.5t-76.5 327.5zM475 1846h205l142 -294h-142z" />
<glyph unicode="&#xda;" horiz-adv-x="1126" d="M112 430l174 1026h178l-174 -1027q-7 -60 -1 -112q17 -175 202 -181q127 -5 206 66.5t103 214.5l176 1039h180l-175 -1025q-29 -214 -163 -335.5t-337 -117.5q-193 4 -292.5 124.5t-76.5 327.5zM618 1552l234 294h231l-306 -294h-159z" />
<glyph unicode="&#xdb;" horiz-adv-x="1126" d="M112 430l174 1026h178l-174 -1027q-7 -60 -1 -112q17 -175 202 -181q127 -5 206 66.5t103 214.5l176 1039h180l-175 -1025q-29 -214 -163 -335.5t-337 -117.5q-193 4 -292.5 124.5t-76.5 327.5zM474 1561v14l242 271h99l169 -272v-14l-138 2l-84 169l-148 -168z" />
<glyph unicode="&#xdc;" horiz-adv-x="1126" d="M112 430l174 1026h178l-174 -1027q-7 -60 -1 -112q17 -175 202 -181q127 -5 206 66.5t103 214.5l176 1039h180l-175 -1025q-29 -214 -163 -335.5t-337 -117.5q-193 4 -292.5 124.5t-76.5 327.5zM431 1679q1 46 30 76.5t77 32.5q46 1 76.5 -28.5t29.5 -76.5q0 -46 -30 -76 t-77 -32q-47 -1 -76.5 28t-29.5 76zM848 1677q1 46 30 77t76 33q48 1 78 -28.5t29 -77.5q0 -47 -30 -76.5t-77 -31.5q-46 -1 -76.5 28t-29.5 76z" />
<glyph unicode="&#xdd;" horiz-adv-x="1052" d="M182 1456h194l161 -729l416 729h211l-567 -924l-92 -532h-179l97 554zM584 1552l234 294h231l-306 -294h-159z" />
<glyph unicode="&#xde;" horiz-adv-x="1033" d="M45 0l253 1456h173l-52 -293l199 -1q171 -6 264 -121t78 -295q-16 -192 -143 -313t-322 -121l-222 1l-55 -313h-173zM298 465l201 -2q91 1 161 51t104.5 139t23.5 187q-10 76 -54.5 121t-118.5 49l-213 2l-2 1z" />
<glyph unicode="&#xdf;" horiz-adv-x="1047" d="M24 0l190 1111q29 211 130.5 329t259.5 115q141 -4 213.5 -94t60.5 -236q-4 -48 -19 -90t-66 -132.5t-63 -123t-18 -69.5l-3 -23q-6 -86 90.5 -213.5t102.5 -214.5v-33q-10 -161 -107.5 -256t-250.5 -91q-147 2 -245 75l56 154q88 -78 177 -78q84 0 136.5 51t62.5 134 q7 54 -14 108t-78.5 131.5t-81 137.5t-17.5 119q4 42 18 79t73.5 134t72 146t9.5 106q-3 58 -32.5 92.5t-80.5 37.5q-175 6 -215 -294l-189 -1112h-172z" />
<glyph unicode="&#xe0;" horiz-adv-x="962" d="M62 287q11 168 138.5 269t334.5 101h120l17 115q18 179 -135 179q-79 0 -131.5 -46.5t-66.5 -121.5l-171 -1q13 137 124.5 230t262.5 91q146 -2 224.5 -89.5t63.5 -244.5l-88 -533q-9 -57 -7 -109l6 -110l-2 -17h-174q-6 30 -5 59l4 59q-115 -139 -248 -139 q-130 0 -202.5 84.5t-64.5 223.5zM240 240q13 -101 125 -101q130 0 224 127l45 259l-79 1q-102 0 -181 -37.5t-111.5 -104t-22.5 -144.5zM357 1536h205l142 -294h-142z" />
<glyph unicode="&#xe1;" horiz-adv-x="962" d="M62 287q11 168 138.5 269t334.5 101h120l17 115q18 179 -135 179q-79 0 -131.5 -46.5t-66.5 -121.5l-171 -1q13 137 124.5 230t262.5 91q146 -2 224.5 -89.5t63.5 -244.5l-88 -533q-9 -57 -7 -109l6 -110l-2 -17h-174q-6 30 -5 59l4 59q-115 -139 -248 -139 q-130 0 -202.5 84.5t-64.5 223.5zM240 240q13 -101 125 -101q130 0 224 127l45 259l-79 1q-102 0 -181 -37.5t-111.5 -104t-22.5 -144.5zM500 1242l234 294h231l-306 -294h-159z" />
<glyph unicode="&#xe2;" horiz-adv-x="962" d="M62 287q11 168 138.5 269t334.5 101h120l17 115q18 179 -135 179q-79 0 -131.5 -46.5t-66.5 -121.5l-171 -1q13 137 124.5 230t262.5 91q146 -2 224.5 -89.5t63.5 -244.5l-88 -533q-9 -57 -7 -109l6 -110l-2 -17h-174q-6 30 -5 59l4 59q-115 -139 -248 -139 q-130 0 -202.5 84.5t-64.5 223.5zM240 240q13 -101 125 -101q130 0 224 127l45 259l-79 1q-102 0 -181 -37.5t-111.5 -104t-22.5 -144.5zM356 1251v14l242 271h99l169 -272v-14l-138 2l-84 169l-148 -168z" />
<glyph unicode="&#xe3;" horiz-adv-x="962" d="M62 287q11 168 138.5 269t334.5 101h120l17 115q18 179 -135 179q-79 0 -131.5 -46.5t-66.5 -121.5l-171 -1q13 137 124.5 230t262.5 91q146 -2 224.5 -89.5t63.5 -244.5l-88 -533q-9 -57 -7 -109l6 -110l-2 -17h-174q-6 30 -5 59l4 59q-115 -139 -248 -139 q-130 0 -202.5 84.5t-64.5 223.5zM240 240q13 -101 125 -101q130 0 224 127l45 259l-79 1q-102 0 -181 -37.5t-111.5 -104t-22.5 -144.5zM315 1253q11 110 65 180t136 68q46 -2 107 -51.5t107 -47.5q67 3 98 113l107 -10q-11 -111 -63.5 -179t-134.5 -66q-33 0 -58.5 16 t-49.5 35t-49 33.5t-56 13.5q-67 -3 -97 -112z" />
<glyph unicode="&#xe4;" horiz-adv-x="962" d="M62 287q11 168 138.5 269t334.5 101h120l17 115q18 179 -135 179q-79 0 -131.5 -46.5t-66.5 -121.5l-171 -1q13 137 124.5 230t262.5 91q146 -2 224.5 -89.5t63.5 -244.5l-88 -533q-9 -57 -7 -109l6 -110l-2 -17h-174q-6 30 -5 59l4 59q-115 -139 -248 -139 q-130 0 -202.5 84.5t-64.5 223.5zM240 240q13 -101 125 -101q130 0 224 127l45 259l-79 1q-102 0 -181 -37.5t-111.5 -104t-22.5 -144.5zM313 1369q1 46 30 76.5t77 32.5q46 1 76.5 -28.5t29.5 -76.5q0 -46 -30 -76t-77 -32q-47 -1 -76.5 28t-29.5 76zM730 1367q1 46 30 77 t76 33q48 1 78 -28.5t29 -77.5q0 -47 -30 -76.5t-77 -31.5q-46 -1 -76.5 28t-29.5 76z" />
<glyph unicode="&#xe5;" horiz-adv-x="962" d="M62 287q11 168 138.5 269t334.5 101h120l17 115q18 179 -135 179q-79 0 -131.5 -46.5t-66.5 -121.5l-171 -1q13 137 124.5 230t262.5 91q146 -2 224.5 -89.5t63.5 -244.5l-88 -533q-9 -57 -7 -109l6 -110l-2 -17h-174q-6 30 -5 59l4 59q-115 -139 -248 -139 q-130 0 -202.5 84.5t-64.5 223.5zM240 240q13 -101 125 -101q130 0 224 127l45 259l-79 1q-102 0 -181 -37.5t-111.5 -104t-22.5 -144.5zM429 1411q2 91 66.5 154t153.5 63q82 0 139.5 -58t57.5 -143q-2 -89 -66.5 -151t-153.5 -62q-84 0 -141.5 57t-55.5 140zM525 1413 q-4 -46 23 -77.5t70 -31.5q46 0 85.5 35.5t45.5 85.5q6 46 -22 79t-70 33q-46 0 -86 -36.5t-46 -87.5z" />
<glyph unicode="&#xe6;" horiz-adv-x="1456" d="M34 296q11 160 122 250t292 90l181 -1l12 86q4 34 3 74q-4 72 -35.5 113.5t-88.5 42.5q-80 2 -137 -53.5t-70 -138.5l-171 19q15 146 124.5 236.5t266.5 88.5q88 -2 155.5 -41t99.5 -112q137 156 294 153q94 -3 162 -48.5t103 -133t37 -194.5q1 -57 -6 -112l-18 -118 h-579q-7 -54 -5 -117q2 -112 51 -179t139 -70q128 -3 269 105l48 -136q-51 -58 -137.5 -89t-186.5 -31q-100 2 -178.5 47t-120.5 125q-149 -176 -375 -172q-124 2 -192 88.5t-59 227.5zM209 292q-9 -75 23 -118t95 -45q102 -3 235 118l45 248l-159 1q-96 -2 -162.5 -59 t-76.5 -145zM797 640h411q12 77 11 125l-3 36q-20 146 -147 151q-86 3 -154 -70.5t-118 -241.5z" />
<glyph unicode="&#xe7;" horiz-adv-x="928" d="M74 298q-10 90 1 181l14 109q33 253 154.5 386t316.5 128q150 -4 232.5 -110t75.5 -283l-163 1q6 235 -155 241q-235 9 -284 -335q-31 -213 -25 -290q10 -194 173 -197q85 -3 143 53t81 158l163 1q-23 -160 -135 -263t-262 -99q-143 3 -228 86t-102 233zM211 -446l5 108 q132 11 145 107q10 67 -67 81l-42 7l42 134h123l-19 -55q47 -13 72.5 -55.5t23.5 -107.5q-3 -99 -76.5 -156.5t-206.5 -62.5z" />
<glyph unicode="&#xe8;" horiz-adv-x="940" d="M89 463l13 107q31 252 153.5 394.5t311.5 137.5q154 -4 231.5 -105.5t73.5 -285.5l-9 -120l-15 -103l-580 1q-13 -90 -12 -141q2 -101 50 -158.5t137 -58.5q64 -2 126.5 25.5t131.5 96.5l81 -113q-64 -84 -158 -123t-197 -37q-182 2 -272 131t-66 352zM281 640l415 -1 l5 26q6 46 6 96q-4 182 -151 190q-177 8 -248 -214zM331 1536h205l142 -294h-142z" />
<glyph unicode="&#xe9;" horiz-adv-x="940" d="M89 463l13 107q31 252 153.5 394.5t311.5 137.5q154 -4 231.5 -105.5t73.5 -285.5l-9 -120l-15 -103l-580 1q-13 -90 -12 -141q2 -101 50 -158.5t137 -58.5q64 -2 126.5 25.5t131.5 96.5l81 -113q-64 -84 -158 -123t-197 -37q-182 2 -272 131t-66 352zM281 640l415 -1 l5 26q6 46 6 96q-4 182 -151 190q-177 8 -248 -214zM474 1242l234 294h231l-306 -294h-159z" />
<glyph unicode="&#xea;" horiz-adv-x="940" d="M89 463l13 107q31 252 153.5 394.5t311.5 137.5q154 -4 231.5 -105.5t73.5 -285.5l-9 -120l-15 -103l-580 1q-13 -90 -12 -141q2 -101 50 -158.5t137 -58.5q64 -2 126.5 25.5t131.5 96.5l81 -113q-64 -84 -158 -123t-197 -37q-182 2 -272 131t-66 352zM281 640l415 -1 l5 26q6 46 6 96q-4 182 -151 190q-177 8 -248 -214zM330 1251v14l242 271h99l169 -272v-14l-138 2l-84 169l-148 -168z" />
<glyph unicode="&#xeb;" horiz-adv-x="940" d="M89 463l13 107q31 252 153.5 394.5t311.5 137.5q154 -4 231.5 -105.5t73.5 -285.5l-9 -120l-15 -103l-580 1q-13 -90 -12 -141q2 -101 50 -158.5t137 -58.5q64 -2 126.5 25.5t131.5 96.5l81 -113q-64 -84 -158 -123t-197 -37q-182 2 -272 131t-66 352zM281 640l415 -1 l5 26q6 46 6 96q-4 182 -151 190q-177 8 -248 -214zM287 1369q1 46 30 76.5t77 32.5q46 1 76.5 -28.5t29.5 -76.5q0 -46 -30 -76t-77 -32q-47 -1 -76.5 28t-29.5 76zM704 1367q1 46 30 77t76 33q48 1 78 -28.5t29 -77.5q0 -47 -30 -76.5t-77 -31.5q-46 -1 -76.5 28t-29.5 76 z" />
<glyph unicode="&#xec;" horiz-adv-x="477" d="M37 0l188 1082h173l-188 -1082h-173zM96 1535h205l142 -294h-142z" />
<glyph unicode="&#xed;" horiz-adv-x="477" d="M37 0l188 1082h173l-188 -1082h-173zM238 1241l234 294h231l-306 -294h-159z" />
<glyph unicode="&#xee;" horiz-adv-x="477" d="M37 0l188 1082h173l-188 -1082h-173zM95 1250v14l242 271h99l169 -272v-14l-138 2l-84 169l-148 -168z" />
<glyph unicode="&#xef;" horiz-adv-x="477" d="M37 0l188 1082h173l-188 -1082h-173zM52 1368q1 46 30 76.5t77 32.5q46 1 76.5 -28.5t29.5 -76.5q0 -46 -30 -76t-77 -32q-47 -1 -76.5 28t-29.5 76zM469 1366q1 46 30 77t76 33q48 1 78 -28.5t29 -77.5q0 -47 -30 -76.5t-77 -31.5q-46 -1 -76.5 28t-29.5 76z" />
<glyph unicode="&#xf0;" horiz-adv-x="1029" d="M104 459q16 151 79.5 275t156 185.5t203.5 58.5q118 -4 209 -101q2 168 -77 316l-203 -144l-53 110l179 125q-83 86 -229 138l68 157q180 -55 304 -189l180 127l53 -110l-158 -107q77 -160 98 -326q27 -210 -24 -479q-45 -240 -168.5 -380.5t-293.5 -135.5 q-165 5 -254 143t-70 337zM274 394q0 -118 43.5 -189.5t125.5 -75.5q108 -5 182.5 107.5t102.5 327.5l15 135q-42 121 -168 127q-86 4 -154 -50.5t-107.5 -160.5t-39.5 -221z" />
<glyph unicode="&#xf1;" horiz-adv-x="971" d="M23 0l188 1082l162 1l-23 -118q118 139 268 137q103 -1 163.5 -70t68.5 -188q4 -69 -3 -135l-118 -709h-172l119 712l4 79q0 153 -126 156q-103 3 -192 -117l-30 -43l-136 -787h-173zM306 1253q11 110 65 180t136 68q46 -2 107 -51.5t107 -47.5q67 3 98 113l107 -10 q-11 -111 -63.5 -179t-134.5 -66q-33 0 -58.5 16t-49.5 35t-49 33.5t-56 13.5q-67 -3 -97 -112z" />
<glyph unicode="&#xf2;" horiz-adv-x="1007" d="M82 489l12 100q33 233 159.5 375.5t319.5 137.5q120 -3 200 -69.5t114.5 -183.5t18.5 -258l-12 -102q-33 -232 -160 -373t-319 -136q-120 3 -200 69t-114.5 183t-18.5 257zM249 416q-3 -134 41.5 -208t134.5 -78q116 -5 192 82.5t102 262.5l15 117l5 72q3 135 -42.5 209 t-134.5 78q-118 5 -196.5 -97.5t-101.5 -284.5l-12 -99zM340 1536h205l142 -294h-142z" />
<glyph unicode="&#xf3;" horiz-adv-x="1007" d="M82 489l12 100q33 233 159.5 375.5t319.5 137.5q120 -3 200 -69.5t114.5 -183.5t18.5 -258l-12 -102q-33 -232 -160 -373t-319 -136q-120 3 -200 69t-114.5 183t-18.5 257zM249 416q-3 -134 41.5 -208t134.5 -78q116 -5 192 82.5t102 262.5l15 117l5 72q3 135 -42.5 209 t-134.5 78q-118 5 -196.5 -97.5t-101.5 -284.5l-12 -99zM483 1242l234 294h231l-306 -294h-159z" />
<glyph unicode="&#xf4;" horiz-adv-x="1007" d="M82 489l12 100q33 233 159.5 375.5t319.5 137.5q120 -3 200 -69.5t114.5 -183.5t18.5 -258l-12 -102q-33 -232 -160 -373t-319 -136q-120 3 -200 69t-114.5 183t-18.5 257zM249 416q-3 -134 41.5 -208t134.5 -78q116 -5 192 82.5t102 262.5l15 117l5 72q3 135 -42.5 209 t-134.5 78q-118 5 -196.5 -97.5t-101.5 -284.5l-12 -99zM339 1251v14l242 271h99l169 -272v-14l-138 2l-84 169l-148 -168z" />
<glyph unicode="&#xf5;" horiz-adv-x="1007" d="M82 489l12 100q33 233 159.5 375.5t319.5 137.5q120 -3 200 -69.5t114.5 -183.5t18.5 -258l-12 -102q-33 -232 -160 -373t-319 -136q-120 3 -200 69t-114.5 183t-18.5 257zM249 416q-3 -134 41.5 -208t134.5 -78q116 -5 192 82.5t102 262.5l15 117l5 72q3 135 -42.5 209 t-134.5 78q-118 5 -196.5 -97.5t-101.5 -284.5l-12 -99zM298 1253q11 110 65 180t136 68q46 -2 107 -51.5t107 -47.5q67 3 98 113l107 -10q-11 -111 -63.5 -179t-134.5 -66q-33 0 -58.5 16t-49.5 35t-49 33.5t-56 13.5q-67 -3 -97 -112z" />
<glyph unicode="&#xf6;" horiz-adv-x="1007" d="M82 489l12 100q33 233 159.5 375.5t319.5 137.5q120 -3 200 -69.5t114.5 -183.5t18.5 -258l-12 -102q-33 -232 -160 -373t-319 -136q-120 3 -200 69t-114.5 183t-18.5 257zM249 416q-3 -134 41.5 -208t134.5 -78q116 -5 192 82.5t102 262.5l15 117l5 72q3 135 -42.5 209 t-134.5 78q-118 5 -196.5 -97.5t-101.5 -284.5l-12 -99zM296 1369q1 46 30 76.5t77 32.5q46 1 76.5 -28.5t29.5 -76.5q0 -46 -30 -76t-77 -32q-47 -1 -76.5 28t-29.5 76zM713 1367q1 46 30 77t76 33q48 1 78 -28.5t29 -77.5q0 -47 -30 -76.5t-77 -31.5q-46 -1 -76.5 28 t-29.5 76z" />
<glyph unicode="&#xf7;" horiz-adv-x="1003" d="M76 600l32 184h816l-33 -184h-815zM329 278q1 47 28 80.5t76 35.5q44 2 73.5 -29t29.5 -81q-1 -47 -28.5 -79t-75.5 -34q-45 -2 -74 28t-29 79zM470 1095q1 47 28 80.5t76 35.5q44 2 74 -28.5t30 -81.5q-1 -47 -29 -79t-76 -34q-45 -2 -74 28t-29 79z" />
<glyph unicode="&#xf8;" horiz-adv-x="1000" d="M45 -133l127 206q-97 130 -95 333q0 59 6 116l3 21q35 256 164 410t319 151q85 -2 161 -42l89 146l121 -1l-128 -207q91 -135 90 -331l-7 -116q-35 -271 -167.5 -424.5t-321.5 -150.5q-76 2 -153 35l-87 -147zM241 380q-2 -72 18 -142l396 683q-43 31 -94 32 q-95 4 -165 -67.5t-110 -204.5t-45 -301zM330 151q40 -22 85 -24q143 -6 227.5 156.5t91.5 406.5q2 69 -13 138z" />
<glyph unicode="&#xf9;" horiz-adv-x="970" d="M87 292l5 91l117 699h171l-116 -702l-4 -73q-4 -73 23.5 -120.5t82.5 -49.5q145 -7 238 143l138 802h173l-187 -1082h-163l19 95q-105 -120 -259 -116q-115 2 -176.5 84t-61.5 229zM342 1536h205l142 -294h-142z" />
<glyph unicode="&#xfa;" horiz-adv-x="970" d="M87 292l5 91l117 699h171l-116 -702l-4 -73q-4 -73 23.5 -120.5t82.5 -49.5q145 -7 238 143l138 802h173l-187 -1082h-163l19 95q-105 -120 -259 -116q-115 2 -176.5 84t-61.5 229zM485 1242l234 294h231l-306 -294h-159z" />
<glyph unicode="&#xfb;" horiz-adv-x="970" d="M87 292l5 91l117 699h171l-116 -702l-4 -73q-4 -73 23.5 -120.5t82.5 -49.5q145 -7 238 143l138 802h173l-187 -1082h-163l19 95q-105 -120 -259 -116q-115 2 -176.5 84t-61.5 229zM341 1251v14l242 271h99l169 -272v-14l-138 2l-84 169l-148 -168z" />
<glyph unicode="&#xfc;" horiz-adv-x="970" d="M87 292l5 91l117 699h171l-116 -702l-4 -73q-4 -73 23.5 -120.5t82.5 -49.5q145 -7 238 143l138 802h173l-187 -1082h-163l19 95q-105 -120 -259 -116q-115 2 -176.5 84t-61.5 229zM298 1369q1 46 30 76.5t77 32.5q46 1 76.5 -28.5t29.5 -76.5q0 -46 -30 -76t-77 -32 q-47 -1 -76.5 28t-29.5 76zM715 1367q1 46 30 77t76 33q48 1 78 -28.5t29 -77.5q0 -47 -30 -76.5t-77 -31.5q-46 -1 -76.5 28t-29.5 76z" />
<glyph unicode="&#xfd;" horiz-adv-x="837" d="M-88 -422l17 150l37 -6q131 -6 204 134l73 164l-122 1062h182l56 -785l328 785h189l-560 -1250q-57 -136 -135.5 -205.5t-170.5 -66.5q-31 1 -98 18zM438 1242l234 294h231l-306 -294h-159z" />
<glyph unicode="&#xfe;" horiz-adv-x="1020" d="M-39 -416l339 1952h172l-104 -547q110 117 251 113q137 -2 208.5 -117.5t66.5 -317.5l-7 -110l-2 -16q-38 -275 -148.5 -421.5t-275.5 -141.5q-147 4 -234 111l-94 -505h-172zM252 263q47 -129 165 -133q104 -4 178.5 85t108.5 270l8 51q11 115 8 177q-11 230 -164 233 q-100 3 -181 -98l-30 -40z" />
<glyph unicode="&#xff;" horiz-adv-x="837" d="M-88 -422l17 150l37 -6q131 -6 204 134l73 164l-122 1062h182l56 -785l328 785h189l-560 -1250q-57 -136 -135.5 -205.5t-170.5 -66.5q-31 1 -98 18zM251 1369q1 46 30 76.5t77 32.5q46 1 76.5 -28.5t29.5 -76.5q0 -46 -30 -76t-77 -32q-47 -1 -76.5 28t-29.5 76z M668 1367q1 46 30 77t76 33q48 1 78 -28.5t29 -77.5q0 -47 -30 -76.5t-77 -31.5q-46 -1 -76.5 28t-29.5 76z" />
<glyph unicode="&#x152;" horiz-adv-x="1652" d="M95 442q-3 75 7 140l45 287q44 279 189.5 444t360.5 165l52 -2l183 -20h695l-28 -158h-572l-81 -468h499l-28 -157h-498l-90 -516h583l-28 -157h-682l-180 -18h-54q-168 4 -267 128t-106 332zM267 486q-10 -167 44.5 -258t163.5 -95q66 -3 168 9l210 1171q-80 14 -161 16 q-145 2 -241 -116t-130 -336l-47 -302z" />
<glyph unicode="&#x153;" horiz-adv-x="1554" d="M83 403q-2 62 5 119l2 23q21 165 88.5 297t166.5 197.5t219 62.5q99 -2 176 -55.5t112 -142.5l40 49q134 153 284 150q143 -2 221.5 -102t80.5 -270l-4 -87l-21 -147h-567l-6 -71q-7 -135 36.5 -213t131.5 -82q139 -4 260 106l58 -127q-55 -64 -140.5 -97.5t-184.5 -31.5 q-101 2 -179 53t-115 138q-78 -102 -162 -148.5t-180 -44.5q-149 4 -233.5 116t-88.5 308zM254 366q11 -231 162 -238q113 -5 188.5 102.5t100.5 300.5l2 22q10 81 8 158q-11 233 -164 240q-107 4 -180 -92t-104 -287l-4 -27l-2 -23q-10 -81 -7 -156zM906 649l394 -1l5 28 q6 42 5 90l-3 35q-21 146 -145 151q-145 3 -234 -238z" />
<glyph unicode="&#x178;" horiz-adv-x="1052" d="M182 1456h194l161 -729l416 729h211l-567 -924l-92 -532h-179l97 554zM397 1679q1 46 30 76.5t77 32.5q46 1 76.5 -28.5t29.5 -76.5q0 -46 -30 -76t-77 -32q-47 -1 -76.5 28t-29.5 76zM814 1677q1 46 30 77t76 33q48 1 78 -28.5t29 -77.5q0 -47 -30 -76.5t-77 -31.5 q-46 -1 -76.5 28t-29.5 76z" />
<glyph unicode="&#x2c6;" horiz-adv-x="861" d="M276 1251v14l242 271h99l169 -272v-14l-138 2l-84 169l-148 -168z" />
<glyph unicode="&#x2dc;" horiz-adv-x="859" d="M227 1249q11 110 65 180t136 68q46 -2 107 -51.5t107 -47.5q67 3 98 113l107 -10q-11 -111 -63.5 -179t-134.5 -66q-33 0 -58.5 16t-49.5 35t-49 33.5t-56 13.5q-67 -3 -97 -112z" />
<glyph unicode="&#x2000;" horiz-adv-x="969" />
<glyph unicode="&#x2001;" horiz-adv-x="1938" />
<glyph unicode="&#x2002;" horiz-adv-x="969" />
<glyph unicode="&#x2003;" horiz-adv-x="1938" />
<glyph unicode="&#x2004;" horiz-adv-x="646" />
<glyph unicode="&#x2005;" horiz-adv-x="484" />
<glyph unicode="&#x2006;" horiz-adv-x="323" />
<glyph unicode="&#x2007;" horiz-adv-x="323" />
<glyph unicode="&#x2008;" horiz-adv-x="242" />
<glyph unicode="&#x2009;" horiz-adv-x="387" />
<glyph unicode="&#x200a;" horiz-adv-x="107" />
<glyph unicode="&#x2010;" horiz-adv-x="503" d="M35 543l27 151h402l-27 -151h-402z" />
<glyph unicode="&#x2011;" horiz-adv-x="503" d="M35 543l27 151h402l-27 -151h-402z" />
<glyph unicode="&#x2012;" horiz-adv-x="503" d="M35 543l27 151h402l-27 -151h-402z" />
<glyph unicode="&#x2013;" horiz-adv-x="1147" d="M160 651l32 151h818l-32 -151h-818z" />
<glyph unicode="&#x2014;" horiz-adv-x="1357" d="M109 651l43 151h1090l-42 -151h-1091z" />
<glyph unicode="&#x2018;" horiz-adv-x="396" d="M179 1073l15 100q36 237 211 382l94 -74q-99 -138 -125 -268l-25 -140h-170z" />
<glyph unicode="&#x2019;" horiz-adv-x="396" d="M145 1120q100 143 125 273l25 143h171l-18 -115q-37 -233 -210 -375z" />
<glyph unicode="&#x201a;" horiz-adv-x="397" d="M-93 -208q101 145 126 283l19 106h172l-15 -94q-36 -225 -208 -370z" />
<glyph unicode="&#x201c;" horiz-adv-x="673" d="M188 1073l15 100q36 237 211 382l94 -74q-99 -138 -125 -268l-25 -140h-170zM464 1073l15 100q36 237 211 382l94 -74q-99 -138 -125 -268l-25 -140h-170z" />
<glyph unicode="&#x201d;" horiz-adv-x="680" d="M157 1120q100 143 125 273l25 143h171l-18 -115q-37 -233 -210 -375zM426 1120q100 143 125 273l25 143h171l-18 -115q-37 -233 -210 -375z" />
<glyph unicode="&#x201e;" horiz-adv-x="658" d="M-96 -227q103 153 129 301l30 172h172l-24 -150q-40 -249 -213 -397zM165 -227q103 153 129 301l30 172h172l-25 -155q-39 -243 -213 -392z" />
<glyph unicode="&#x2022;" horiz-adv-x="679" d="M160 724l1 41q6 94 64.5 150.5t144.5 56.5q81 0 133.5 -54.5t52.5 -142.5l-2 -42q-6 -90 -62.5 -145t-146.5 -55q-82 0 -133.5 53t-51.5 138z" />
<glyph unicode="&#x2026;" horiz-adv-x="1183" d="M52 94q0 49 31 81.5t80 34.5q49 1 81 -30t31 -80t-33 -79.5t-80 -32.5t-79 27.5t-31 78.5zM415 94q0 49 31 81.5t80 34.5q49 1 81 -30t31 -80t-33 -79.5t-80 -32.5t-79 27.5t-31 78.5zM760 94q0 49 31 81.5t80 34.5q49 1 81 -30t31 -80t-33 -79.5t-80 -32.5t-79 27.5 t-31 78.5z" />
<glyph unicode="&#x202f;" horiz-adv-x="387" />
<glyph unicode="&#x2039;" horiz-adv-x="550" d="M98 540l2 20l303 389h137l-281 -410l132 -386h-114z" />
<glyph unicode="&#x203a;" horiz-adv-x="550" d="M6 152l281 408l-132 389h116l179 -388l-2 -20l-303 -389h-139z" />
<glyph unicode="&#x205f;" horiz-adv-x="484" />
<glyph unicode="&#x20ac;" d="M89 541l22 124h141l24 137h-141l21 125h135q40 188 116.5 312.5t179.5 182.5t231 56q82 -2 205 -33l-37 -162q-89 36 -173 38q-256 6 -344 -394h310l-23 -125h-301l-24 -137h302l-22 -124h-303l-6 -81q-7 -148 42.5 -233.5t151.5 -87.5q76 -3 182 32l6 -163 q-98 -27 -196 -26q-168 4 -261.5 119.5t-96.5 309.5q-1 66 8 131z" />
<glyph unicode="&#x2122;" horiz-adv-x="1097" d="M236 1375l14 81h315l-15 -81h-116l-80 -456h-80l79 456h-117zM533 919l93 537h96l43 -397l181 397h103l-94 -537h-80l67 378l-171 -378h-44l-44 400l-71 -400h-79z" />
<glyph unicode="&#x25fc;" horiz-adv-x="1080" d="M0 0v1080h1080v-1080h-1080z" />
</font>
</defs>
</svg>
