<?xml version="1.0" standalone="no"?>
<!DOCTYPE svg PUBLIC "-//W3C//DTD SVG 1.1//EN" "http://www.w3.org/Graphics/SVG/1.1/DTD/svg11.dtd" >
<svg xmlns="http://www.w3.org/2000/svg" xmlns:xlink="http://www.w3.org/1999/xlink" version="1.1">
<metadata></metadata>
<defs>
<font id="roboto_condensedbold_italic" horiz-adv-x="1015" >
<font-face units-per-em="2048" ascent="1536" descent="-512" />
<missing-glyph horiz-adv-x="468" />
<glyph unicode="&#xfb01;" horiz-adv-x="1094" d="M50 0l151 869h-127l37 213h119l8 44q38 214 162 324.5t314 108.5q74 -2 144 -20.5t139 -41.5l-68 -240q-111 50 -217 50q-165 0 -201 -193l-6 -32h173l-38 -213h-161l-151 -869h-278zM590 0l188 1082h277l-188 -1082h-277z" />
<glyph unicode="&#xfb02;" horiz-adv-x="1102" d="M58 0l151 869h-127l37 213h127l12 92q28 183 145 285.5t298 100.5q110 -1 222 -12l210 -21l-258 -1527h-277l229 1315q-78 9 -104 9q-79 -1 -127 -44t-62 -120l-12 -78h165l-37 -213h-164l-151 -869h-277z" />
<glyph unicode="&#xfb03;" horiz-adv-x="1642" d="M58 0l151 869h-127l37 213h127l11 85q24 188 129.5 292t265.5 102q53 -2 131 -21l-23 -228q-47 11 -67 11q-65 0 -104 -40.5t-52 -107.5l-14 -93h254l11 60q40 203 161.5 311t310.5 106q75 -2 145 -20.5t139 -41.5l-68 -240q-113 50 -219 50q-163 0 -199 -192l-6 -33h173 l-38 -213h-161l-151 -869h-277l151 869h-263l-151 -869h-277zM1137 0l188 1082h277l-188 -1082h-277z" />
<glyph unicode="&#xfb04;" horiz-adv-x="1642" d="M58 0l151 869h-127l37 213l127 1l12 91q24 183 127 285.5t266 100.5q52 0 132 -20l-23 -228q-37 11 -67 11q-65 0 -104 -40.5t-52 -107.5l-15 -93l263 1l12 91q28 183 144 285t299 100q110 -1 222 -12l210 -21l-258 -1526h-277l232 1315q-78 9 -106 8q-164 0 -191 -177 l-10 -64h164l-37 -213h-163l-151 -869h-277l151 869h-263l-151 -869h-277z" />
<glyph horiz-adv-x="0" />
<glyph horiz-adv-x="0" />
<glyph unicode="&#xd;" horiz-adv-x="468" />
<glyph horiz-adv-x="0" />
<glyph unicode=" "  horiz-adv-x="468" />
<glyph unicode="&#x09;" horiz-adv-x="468" />
<glyph unicode="&#xa0;" horiz-adv-x="468" />
<glyph unicode="!" horiz-adv-x="527" d="M35 132q0 69 43.5 114t107.5 47q64 0 107 -43t43 -107q0 -69 -42 -114t-108 -47q-67 0 -109 44t-42 106zM126 448l143 1008h293l-207 -1008h-229z" />
<glyph unicode="&#x22;" horiz-adv-x="646" d="M119 985l87 551h199l-24 -151l-100 -400h-162zM436 985l87 551h199l-24 -151l-100 -400h-162z" />
<glyph unicode="#" horiz-adv-x="1058" d="M38 410l30 173h200l90 283h-180l31 174h203l132 416h175l-133 -416h125l132 416h175l-132 -416h172l-30 -174h-196l-90 -283h175l-30 -173h-199l-129 -410h-176l130 410h-124l-129 -410h-176l130 410h-176zM442 583h125l90 283h-124z" />
<glyph unicode="$" d="M70 458h277l-1 -74q0 -79 29 -124.5t86 -45.5q62 0 102.5 48t50.5 130q16 141 -99 212.5t-168.5 120t-83.5 100t-42 108.5t-7 129q12 166 114 276.5t268 134.5l39 214h149l-41 -220q127 -36 189.5 -153.5t54.5 -308.5h-277l2 40q8 194 -91 198q-99 3 -130 -145l-6 -36 q-15 -130 99.5 -206t155.5 -112q81 -71 116.5 -155t27.5 -196q-12 -169 -112 -277t-270 -132l-38 -199h-147l38 201q-146 30 -220.5 152t-64.5 320z" />
<glyph unicode="%" horiz-adv-x="1279" d="M188 1099l6 67q13 141 92.5 227.5t202.5 84.5q119 -4 182.5 -89t54.5 -213l-6 -77q-14 -138 -95 -220.5t-199 -78.5q-116 2 -181.5 87t-56.5 212zM211 194l769 1126l129 -82l-770 -1126zM368 1057q4 -87 65 -90q38 -2 66.5 33t37.5 99l8 78l1 41q0 89 -64 92 q-40 2 -68 -35t-37 -99l-9 -79v-40zM603 279l6 66q13 148 94 231.5t201 81.5q119 -4 183 -89t55 -212l-6 -67q-13 -144 -93 -229.5t-201 -81.5q-114 2 -181 85.5t-58 214.5zM784 238q2 -38 19 -64.5t46 -27.5q85 -6 104 133l9 79l1 41q-4 88 -65 91q-39 2 -67.5 -34 t-37.5 -99l-9 -80v-39z" />
<glyph unicode="&#x26;" horiz-adv-x="1160" d="M43 385q8 105 71 197t202 188q-39 99 -55 171.5t-11 142.5q13 175 118.5 286t260.5 107q131 -4 212 -100t73 -233q-11 -194 -202 -334l-90 -66l134 -252q56 113 71 223l230 1q-24 -279 -170 -457l135 -259h-296l-37 74q-148 -97 -299 -93q-167 4 -263 117t-84 287z M326 344q2 -55 27 -91.5t68 -37.5q60 -3 156 52l-161 325l-11 -8q-45 -61 -64 -118t-15 -122zM488 1091q-8 -67 36 -167l53 36q92 68 101 166q3 52 -16 84t-56 32q-45 0 -77 -42t-41 -109z" />
<glyph unicode="'" horiz-adv-x="330" d="M119 983l87 553h208l-25 -161l-89 -392h-181z" />
<glyph unicode="(" horiz-adv-x="652" d="M107 392q15 279 93.5 536.5t204.5 433t288 256.5l42 -160q-141 -132 -233.5 -333.5t-139 -507.5t-39.5 -501q11 -285 136 -418l-64 -153q-154 103 -229 323t-59 524z" />
<glyph unicode=")" horiz-adv-x="652" d="M-88 -300q143 137 235.5 341t137.5 506t40 497q-5 136 -39.5 243.5t-96.5 173.5l61 154q145 -92 222.5 -283.5t81.5 -464.5l-1 -98q-5 -85 -18 -197q-36 -250 -121 -465t-203.5 -356.5t-260.5 -207.5z" />
<glyph unicode="*" horiz-adv-x="912" d="M101 1056l86 174l285 -129l44 355h191l-80 -349l309 120l27 -192l-328 -90l160 -270l-164 -106l-126 293l-223 -279l-146 117l254 268z" />
<glyph unicode="+" horiz-adv-x="954" d="M53 553l46 263h279l68 390h262l-68 -390h275l-46 -263h-274l-71 -407h-262l71 407h-280z" />
<glyph unicode="," horiz-adv-x="498" d="M-117 -287l62 99q75 123 92 221l37 213h240l-32 -192q-43 -255 -253 -421z" />
<glyph unicode="-" horiz-adv-x="732" d="M102 506l42 236h476l-42 -236h-476z" />
<glyph unicode="." horiz-adv-x="588" d="M43 138q0 70 46 116.5t115 46.5t114 -43.5t45 -107.5q0 -72 -48 -117t-114 -45q-70 0 -113 43t-45 107z" />
<glyph unicode="/" horiz-adv-x="668" d="M-131 -125l698 1581h210l-698 -1581h-210z" />
<glyph unicode="0" d="M87 469q2 70 10 133l43 281q48 298 174 448.5t321 145.5q169 -6 253.5 -134t78.5 -354q-2 -70 -10 -133l-46 -297q-59 -334 -212 -476q-118 -109 -281 -103q-112 3 -189 63t-111.5 173.5t-30.5 252.5zM352 363q4 -145 92 -150q73 -6 121.5 71t71.5 278l48 336l13 110 l2 87q-2 66 -25 105.5t-66 42.5q-74 6 -122.5 -73t-71.5 -272l-48 -336l-13 -112z" />
<glyph unicode="1" d="M220 1000l44 247l541 211h34l-246 -1458h-277l192 1106z" />
<glyph unicode="2" d="M-2 0l33 211l449 490q185 204 198 350l2 53q0 63 -24 101t-70 39q-136 3 -171 -223l-3 -23l-275 -1q10 132 74 244.5t169 174.5t232 61q178 -4 273 -115.5t79 -292.5q-9 -104 -60 -204.5t-148 -212.5l-137 -150l-223 -267h473l-37 -235h-834z" />
<glyph unicode="3" d="M33 400l276 -1q-3 -83 28 -132.5t88 -51.5q86 -2 140 77t47 201q-3 60 -34 96t-88 39l-147 1l36 228l124 -2q92 2 142.5 79.5t42.5 189.5q-11 117 -103 120q-58 0 -97 -44t-52 -120l-276 -1q14 177 137 288.5t299 109.5q177 -4 280 -114.5t91 -294.5q-15 -205 -232 -325 q78 -46 115 -129t30 -198q-9 -126 -72.5 -226.5t-172.5 -156.5t-238 -53q-171 4 -270.5 119.5t-93.5 300.5z" />
<glyph unicode="4" d="M25 315l20 196l636 945h284l-157 -906h121l-41 -235h-120l-55 -315h-277l56 315h-467zM326 550h206l93 491l-10 -15z" />
<glyph unicode="5" d="M60 407h273q6 -188 115 -191q89 -4 137 98q46 99 45 255q-2 77 -33.5 123t-91.5 46q-80 2 -144 -78l-222 60l185 736h687l-38 -242h-457l-84 -313q71 53 163 55q137 2 218.5 -96.5t89.5 -275.5q9 -269 -127 -440t-347 -165q-168 4 -270.5 126t-98.5 302z" />
<glyph unicode="6" d="M88 431q-3 67 4 129l13 99q50 373 242 591.5t486 221.5h44l-24 -241l-10 1q-148 2 -256 -86.5t-178 -275.5q106 106 229 104q130 -2 203.5 -105t78.5 -279q5 -266 -132 -440.5t-345 -170.5q-161 4 -254.5 125t-100.5 327zM356 408q0 -191 103 -194q87 -3 136.5 99 t48.5 244q-2 85 -30.5 135t-80.5 51q-90 3 -157 -119q-20 -160 -20 -216z" />
<glyph unicode="7" d="M85 0l639 1221h-562l37 235h856l-27 -176l-642 -1280h-301z" />
<glyph unicode="8" d="M67 391q19 243 251 364q-122 115 -109 305q8 121 66 219t152.5 149.5t211.5 48.5q166 -4 257 -116t76 -284q-15 -211 -220 -332q75 -63 105 -152t22 -186q-14 -192 -140 -312.5t-315 -114.5q-175 4 -273 118.5t-84 292.5zM346 351q2 -61 28.5 -99t74.5 -39 q76 -2 120.5 79t39.5 199q-8 137 -100 139q-76 2 -122.5 -79.5t-40.5 -199.5zM480 993q0 -59 21 -95t61 -37q66 0 101 72t34 182q-4 126 -83 128q-64 0 -99 -68t-35 -182z" />
<glyph unicode="9" d="M147 849q-9 156 51.5 308t171.5 237.5t248 82.5q106 -3 182.5 -62t116 -168.5t41.5 -237.5q2 -101 -24 -262q-38 -237 -136.5 -409.5t-247.5 -261.5t-330 -92h-37l25 244h11q149 -4 252 78t164 257q-102 -92 -197 -92q-131 0 -207 100t-84 278zM422 855 q3 -79 29.5 -121.5t73.5 -42.5q64 0 118 78l23 35q23 190 23 241q0 194 -95 197q-85 2 -131 -116t-41 -271z" />
<glyph unicode=":" horiz-adv-x="555" d="M45 138q0 70 46 116.5t115 46.5t114 -43.5t45 -107.5q0 -72 -48 -117t-114 -45q-70 0 -113 43t-45 107zM186 956q0 70 46 116.5t115 46.5t114 -43.5t45 -107.5q0 -72 -48 -117t-114 -45q-70 0 -113 43t-45 107z" />
<glyph unicode=";" horiz-adv-x="516" d="M-94 -287l62 99q75 123 92 221l37 213h240l-32 -192q-43 -255 -253 -421zM170 956q0 70 46 116.5t115 46.5t114 -43.5t45 -107.5q0 -72 -48 -117t-114 -45q-70 0 -113 43t-45 107z" />
<glyph unicode="&#x3c;" horiz-adv-x="898" d="M42 507l42 238l771 365l-51 -295l-476 -204l406 -199l-47 -270z" />
<glyph unicode="=" horiz-adv-x="1009" d="M77 311l42 237h742l-42 -237h-742zM152 744l42 238h742l-42 -238h-742z" />
<glyph unicode="&#x3e;" horiz-adv-x="912" d="M34 128l52 293l484 206l-414 201l47 268l654 -365l-41 -238z" />
<glyph unicode="?" horiz-adv-x="900" d="M135 1068q19 190 133.5 301.5t295.5 107.5q167 -4 257 -109t76 -277q-11 -154 -160 -304l-121 -118q-77 -82 -100 -221l-238 -1q8 118 48 210.5t129 179t123 148.5t37 147q2 49 -17 79t-58 31q-48 1 -82.5 -45t-47.5 -128zM190 136q0 70 43 114.5t107 46.5 q62 2 106 -40.5t44 -109.5q0 -69 -42 -114t-109 -47q-67 0 -108 44.5t-41 105.5z" />
<glyph unicode="@" horiz-adv-x="1532" d="M36 248q9 309 134.5 587.5t320.5 431t435 148.5q168 -3 287.5 -83.5t180.5 -236.5t59 -354q-4 -219 -65 -398t-163 -274t-235 -91q-66 2 -114 36t-68 98q-108 -134 -216 -131q-88 2 -139 69t-57 195q-10 168 58 357t174.5 290t238.5 99q67 -2 123.5 -25.5t130.5 -82.5 l-127 -582q-13 -76 -11 -97q2 -63 53 -65q79 -4 136.5 89.5t90.5 282.5t23 339q-15 197 -108 298t-256 104q-147 4 -275.5 -75.5t-229 -245t-153.5 -384.5t-42 -408q10 -201 102.5 -307t259.5 -108q139 -2 285 68l23 -159q-121 -88 -312 -86q-182 3 -306.5 87.5t-184.5 247 t-53 366.5zM607 272q0 -112 66 -115q34 -1 70 41t60 115l120 496q-26 7 -41 7q-185 8 -250 -334q-27 -141 -25 -210z" />
<glyph unicode="A" horiz-adv-x="1196" d="M-88 0l694 1456h263l191 -1456h-297l-25 298h-387l-127 -298h-312zM456 543h262l-41 516z" />
<glyph unicode="B" horiz-adv-x="1125" d="M9 0l252 1456l403 -1q210 1 320 -101q98 -91 98 -250q0 -19 -1 -39q-17 -222 -232 -322q77 -31 113 -111q29 -65 29 -155q0 -20 -1 -41q-15 -203 -144.5 -319.5t-347.5 -116.5h-489zM338 244l168 -2q95 2 149.5 69.5t56.5 192.5q0 120 -101 128l-205 1zM442 847l136 -2 q109 2 165 74q49 63 49 157q0 13 -1 27q-10 101 -120 107l-165 1z" />
<glyph unicode="C" horiz-adv-x="1143" d="M82 452v25q0 63 8 126l37 241q47 309 203 473q152 159 375 159h14q203 -3 312 -134.5t109 -381.5l-289 1l2 99q-3 168 -157 173h-10q-112 -1 -178 -87q-69 -90 -93 -293l-36 -251q-14 -120 -15 -157q-1 -13 -1 -24q0 -192 153 -199h16q90 0 145 54q60 58 84 208l281 2 q-26 -236 -174 -374q-141 -132 -355 -132h-19q-194 4 -300 128t-112 344z" />
<glyph unicode="D" horiz-adv-x="1132" d="M9 0l252 1456l359 -1q159 -4 268.5 -83t157.5 -219q32 -96 32 -207q0 -51 -7 -106l-32 -213q-44 -294 -212.5 -460t-423.5 -167h-394zM338 244l71 -2q149 0 231 86.5t110 278.5l34 236q12 95 12 147q0 11 -1 21q-5 100 -51 148t-136 51l-102 1z" />
<glyph unicode="E" horiz-adv-x="985" d="M9 0l252 1456h811l-43 -245h-523l-60 -344h445l-42 -237h-444l-67 -386h526l-43 -244h-812z" />
<glyph unicode="F" horiz-adv-x="955" d="M9 0l252 1456h784l-43 -245h-496l-65 -373h444l-43 -244h-443l-103 -594h-287z" />
<glyph unicode="G" horiz-adv-x="1172" d="M88 449q-1 18 -1 35q0 59 8 120l36 241q46 304 198 470q148 161 382 161h14q208 -4 313.5 -125.5t107.5 -359.5l-279 1l-3 80q-13 156 -153 161h-11q-198 0 -261 -273l-15 -75l-40 -281q-11 -78 -11 -138q0 -13 1 -26q5 -112 50.5 -162.5t128.5 -52.5h6q75 0 168 51 l51 268h-201l39 222h486l-92 -601q-81 -90 -211 -139q-125 -46 -267 -46h-12q-131 1 -227 57.5t-148.5 164t-56.5 247.5z" />
<glyph unicode="H" horiz-adv-x="1229" d="M9 0l252 1456h287l-102 -589h419l103 589h286l-253 -1456h-286l108 623h-419l-108 -623h-287z" />
<glyph unicode="I" horiz-adv-x="547" d="M21 0l253 1456h287l-253 -1456h-287z" />
<glyph unicode="J" horiz-adv-x="984" d="M17 431l290 -1l-2 -63v-10q0 -58 22 -94q24 -39 73 -40h4q115 0 152 194l176 1039h287l-172 -1008q-29 -212 -158 -342q-125 -127 -305 -127h-11q-181 4 -274 125q-83 109 -83 285q0 20 1 42z" />
<glyph unicode="K" horiz-adv-x="1109" d="M9 0l252 1456h287l-108 -619l116 154l336 465h367l-527 -653l266 -803h-327l-159 558l-146 -154l-70 -404h-287z" />
<glyph unicode="L" horiz-adv-x="961" d="M9 0l252 1456h287l-210 -1212h501l-43 -244h-787z" />
<glyph unicode="M" horiz-adv-x="1516" d="M9 0l252 1456h370l85 -1047l447 1047h378l-253 -1456h-288l70 403l126 575l-446 -978h-195l-110 1011l-83 -627l-66 -384h-287z" />
<glyph unicode="N" horiz-adv-x="1226" d="M9 0l252 1456h281l255 -966l168 966h286l-253 -1456h-280l-254 965l-168 -965h-287z" />
<glyph unicode="O" horiz-adv-x="1209" d="M85 445q-1 21 -1 43q0 54 7 109l37 242q29 194 113 344t209 223q120 70 270 70h12q194 -4 304.5 -132.5t118.5 -351.5v-26q0 -70 -9 -133l-33 -223q-45 -300 -203 -468q-153 -163 -384 -162h-14q-192 4 -304.5 126t-122.5 339zM370 441q5 -210 165 -217h10q107 0 177 84 q73 88 102 288l35 247q12 103 12 159q-5 223 -161 229h-12q-112 -1 -182 -91q-74 -96 -102 -299l-35 -245q-10 -79 -9 -131q-1 -13 0 -24z" />
<glyph unicode="P" horiz-adv-x="1140" d="M9 0l252 1456l467 -1q192 -7 300 -137q94 -113 93 -282q0 -27 -2 -54q-20 -214 -162 -342.5t-362 -128.5l-210 1l-89 -512h-287zM427 757l185 -2q107 3 166 83q56 77 56 203v13q-2 69 -33 110t-86 45l-209 2z" />
<glyph unicode="Q" horiz-adv-x="1209" d="M85 463q-1 18 -1 36q0 64 9 122l32 213q46 302 203 474q154 168 388 168h14q195 -4 305.5 -132.5t118.5 -351.5v-26q0 -64 -8 -127l-35 -231q-57 -365 -282 -522l163 -187l-197 -159l-215 244q-30 -4 -54 -4q-10 0 -19 1q-125 1 -220 59.5t-146.5 170.5t-55.5 252z M369 455q0 -110 42 -169t121 -62h14q102 0 171 82q74 89 106 289l36 248q12 103 12 159q-5 222 -163 229h-11q-219 0 -279 -351l-38 -266q-11 -95 -11 -150v-9z" />
<glyph unicode="R" horiz-adv-x="1110" d="M10 0l252 1456l440 -1q195 -6 299 -120q90 -99 90 -260q0 -25 -2 -51q-25 -299 -272 -416l146 -592v-16h-308l-120 532h-146l-92 -532h-287zM431 777l151 -2q104 3 164 83q59 79 59 209q0 135 -115 143l-183 1z" />
<glyph unicode="S" horiz-adv-x="1083" d="M49 460l288 -1q-1 -21 -2 -40q-1 -99 35 -145q42 -56 131 -55q78 1 123 48.5t56 122.5q2 18 2 34q0 52 -24 90q-32 50 -131 97t-166 98q-169 128 -169 319q0 16 1 32q9 122 76.5 217.5t180.5 148.5q107 50 228 50h14q186 -4 292 -130q98 -117 99 -294q0 -13 -1 -27 l-286 1q1 15 1 28q0 177 -132 180h-6q-69 0 -119 -48q-52 -50 -64 -127q-1 -9 -1 -18q0 -105 163 -182q177 -83 254 -187q75 -100 74 -238q0 -21 -1 -42q-15 -190 -150 -304q-130 -110 -323 -109h-14q-203 4 -321 138q-109 124 -109 311q0 16 1 32z" />
<glyph unicode="T" horiz-adv-x="1089" d="M154 1211l43 245h981l-43 -245h-349l-210 -1211h-288l210 1211h-344z" />
<glyph unicode="U" horiz-adv-x="1145" d="M93 456l170 1000h288l-168 -1001l-4 -86q0 -140 139 -145h10q89 0 140 51q54 54 71 180l169 1001h287l-170 -1000q-31 -227 -169 -354q-134 -123 -348 -123h-14q-210 4 -318 132q-88 104 -88 267q0 37 5 78z" />
<glyph unicode="V" horiz-adv-x="1158" d="M157 1456h311l71 -1053l402 1053h327l-635 -1456h-299z" />
<glyph unicode="W" horiz-adv-x="1498" d="M178 1456h282l-11 -908l307 908h242l22 -911l276 911h288l-478 -1456h-288l-30 854l-296 -854h-289z" />
<glyph unicode="X" horiz-adv-x="1122" d="M-68 0l462 746l-216 710h317l112 -498l267 498h339l-452 -735l221 -721h-322l-113 507l-272 -507h-343z" />
<glyph unicode="Y" horiz-adv-x="1088" d="M169 1456h302l99 -651l325 651h323l-548 -942l-89 -514h-291l95 543z" />
<glyph unicode="Z" horiz-adv-x="1063" d="M-29 0l33 190l746 1021h-575l43 245h912l-32 -186l-742 -1026h575l-43 -244h-917z" />
<glyph unicode="[" horiz-adv-x="534" d="M-41 -339l318 2034h379l-35 -224h-102l-248 -1587h102l-35 -223h-379z" />
<glyph unicode="\" horiz-adv-x="768" d="M162 1456h273l221 -1581h-273z" />
<glyph unicode="]" horiz-adv-x="534" d="M-115 -339l36 223h102l248 1587h-103l36 224h379l-318 -2034h-380z" />
<glyph unicode="^" horiz-adv-x="786" d="M64 729l371 727h199l117 -727h-207l-48 452l-206 -452h-226z" />
<glyph unicode="_" horiz-adv-x="804" d="M-124 -228l40 228h754l-40 -228h-754z" />
<glyph unicode="`" horiz-adv-x="668" d="M205 1536h293l144 -310h-217z" />
<glyph unicode="a" horiz-adv-x="945" d="M22 295q9 172 134 269.5t336 97.5h81l13 88l3 45q0 87 -70 87h-4q-93 0 -114 -124l-275 -2q9 154 128 252q117 96 283 95h7q160 -3 246 -101q72 -82 73 -209q0 -24 -3 -49l-88 -550l-4 -53q-1 -13 -1 -25q0 -55 15 -98l-1 -18h-271q-8 34 -8 84q-92 -105 -210 -105 q-124 2 -200 92q-70 83 -70 205v19zM304 275q0 -32 16.5 -53t47.5 -22h4q71 0 132 64l49 229h-60q-80 -4 -129 -54t-59 -126z" />
<glyph unicode="b" horiz-adv-x="994" d="M-5 0l267 1536h276l-105 -543q92 110 209 110h4q142 -2 212 -106q63 -94 62 -267v-35q-8 -231 -58 -399q-51 -166 -144 -244q-87 -73 -207 -73h-16q-138 6 -208 130l-35 -109h-257zM322 289q30 -72 113 -76h10q146 0 175 219l9 74l19 186v19q0 78 -22 113q-25 39 -79 41 h-5q-74 0 -134 -80z" />
<glyph unicode="c" horiz-adv-x="924" d="M56 311q-5 42 -5 91q-1 95 19 213q30 178 110 297q127 190 359 190h14q164 -4 250 -118q78 -103 78 -271q0 -18 -1 -36l-260 1l1 62q-4 124 -98 129h-10q-138 0 -165 -228l-19 -181q-9 -61 -9 -106q0 -15 1 -29q7 -109 98 -112h4q110 0 137 161l259 1q-17 -180 -133 -290 q-112 -106 -271 -106h-12q-151 4 -240.5 90.5t-106.5 241.5z" />
<glyph unicode="d" horiz-adv-x="995" d="M43 387l3 64q22 329 130 493q104 159 288 159h11q119 -4 193 -111l102 544h278l-266 -1536h-248l15 110q-104 -132 -229 -132q-140 2 -210 107q-68 101 -67 286v16zM318 391q-1 -14 -1 -27q-1 -66 21 -104q26 -44 79 -45h4q69 0 132 75l87 497q-37 76 -107 79h-10 q-139 0 -176 -214l-11 -76z" />
<glyph unicode="e" horiz-adv-x="961" d="M62 479l9 74q33 269 163 411q126 138 319 138h14q148 -4 232.5 -92.5t98.5 -247.5q3 -38 3 -75q0 -56 -7 -111l-19 -130h-540q-4 -31 -4 -60q0 -12 1 -23q7 -144 141 -147h10q120 0 232 95l93 -172q-56 -75 -154 -118q-94 -41 -203 -41h-10q-131 1 -223 64 q-92 62 -132 176q-29 81 -29 179q0 39 5 80zM354 644l275 -1q10 58 11 94v9q0 118 -100 123h-7q-113 0 -159 -152z" />
<glyph unicode="f" horiz-adv-x="661" d="M58 0l151 869h-127l37 213l127 1l12 91q24 183 127 286q101 100 260 100h6q49 0 132 -20l-23 -228q-37 11 -67 11q-127 0 -156 -148l-14 -93h164l-37 -213h-164l-151 -869h-277z" />
<glyph unicode="g" horiz-adv-x="1009" d="M-13 -297l113 194q83 -94 207 -98h12q169 0 208 198l20 90q-97 -108 -214 -108q-142 2 -215 109q-70 105 -70 288v10q0 118 23.5 252.5t67.5 227.5q111 236 338 236h11q144 -4 210 -118l34 99l252 -1l-184 -1082q-29 -211 -162 -322q-125 -105 -313 -105h-20 q-88 2 -174 36t-144 94zM321 389q0 -170 109 -173h4q71 0 133 62l93 520q-38 65 -110 69h-10q-167 0 -202 -284q-17 -140 -17 -194z" />
<glyph unicode="h" horiz-adv-x="988" d="M-12 0l267 1536h276l-106 -550q101 117 223 117h4q119 -2 182 -88t63 -239l-5 -95l-114 -681h-277l113 684l5 59v10q0 112 -87 112h-4q-64 0 -124 -70l-139 -795h-277z" />
<glyph unicode="i" horiz-adv-x="511" d="M8 0l188 1082h277l-188 -1082h-277zM232 1357q0 69 43.5 112.5t106.5 43.5h6q58 -1 100 -41q44 -42 43 -105q0 -70 -43.5 -113.5t-106.5 -43.5h-6q-61 0 -101 40q-42 42 -42 107z" />
<glyph unicode="j" horiz-adv-x="498" d="M-218 -423l21 234q47 -13 74 -13q100 0 125 144l195 1140h277l-194 -1139q-24 -186 -118.5 -285t-246.5 -99q-67 2 -133 18zM227 1357q0 66 42 110t108 46h6q58 0 99 -41q44 -42 44 -105q0 -70 -43.5 -113.5t-106.5 -43.5h-6q-60 0 -100 40q-43 43 -43 107z" />
<glyph unicode="k" horiz-adv-x="961" d="M-5 0l267 1536h276l-153 -833l44 54l245 325h345l-394 -459l220 -623h-303l-118 413l-97 -92l-56 -321h-276z" />
<glyph unicode="l" horiz-adv-x="511" d="M8 0l266 1536h278l-267 -1536h-277z" />
<glyph unicode="m" horiz-adv-x="1483" d="M-4 0l188 1082l256 1l-18 -102q109 121 246 121h9q155 -4 202 -146q121 147 268 147h6q114 -2 174.5 -85.5t59.5 -237.5l-5 -92l-114 -688h-277l115 690l5 56q1 10 1 19q0 101 -81 101q-71 0 -130 -97l-6 -48l-125 -721h-276l114 688l6 56q1 10 1 20q0 102 -80 102 q-42 0 -71.5 -23.5t-54.5 -55.5l-137 -787h-276z" />
<glyph unicode="n" horiz-adv-x="988" d="M-12 0l188 1082l258 1l-20 -109q111 129 245 129h8q113 -1 173 -85q59 -82 59 -233v-5l-6 -92l-115 -688h-277l114 690l5 59v10q0 107 -88 107q-43 0 -73 -23.5t-56 -55.5l-137 -787h-278z" />
<glyph unicode="o" horiz-adv-x="998" d="M59 505l6 54q29 255 163 401q130 142 324 142h13q164 -4 256 -111t101 -287v-71q-12 -315 -150 -487q-133 -167 -344 -166h-15q-129 3 -213 69.5t-120 184.5q-25 82 -26 181q0 43 5 90zM331 392q0 -173 106 -179h10q136 0 177 220l11 72q14 144 14 185q0 172 -109 179h-8 q-74 0 -122 -73q-51 -77 -65 -222.5t-14 -181.5z" />
<glyph unicode="p" horiz-adv-x="994" d="M-77 -416l260 1498l252 1l-15 -100q97 120 221 120h4q142 -2 212 -108q64 -96 64 -269q0 -17 -1 -35q-8 -233 -60 -395.5t-146 -241.5q-87 -74 -206 -74h-15q-127 4 -198 109l-96 -505h-276zM320 283q32 -65 112 -69h10q145 0 180 239l22 204l2 37q0 94 -24.5 132 t-76.5 40h-4q-72 0 -131 -73z" />
<glyph unicode="q" horiz-adv-x="997" d="M44 389l3 65q23 327 127 490q102 158 288 158h11q140 -4 208 -130l43 110h245l-260 -1498h-278l98 501q-92 -106 -206 -106h-4q-138 2 -208 107q-67 100 -67 287v16zM320 389v-19q0 -76 22 -113q24 -41 76 -43h4q71 0 129 67l91 518q-32 66 -106 69h-10q-143 0 -180 -224 l-10 -71z" />
<glyph unicode="r" horiz-adv-x="669" d="M-6 0l188 1082l259 1l-22 -119q49 78 96 109.5t101 31.5q32 0 85 -15l-38 -280l-88 10h-4q-108 0 -175 -105l-125 -715h-277z" />
<glyph unicode="s" horiz-adv-x="912" d="M7 336l263 -1v-15q0 -67 25 -97q28 -34 87 -34q52 0 88.5 27.5t45.5 80.5q1 5 1 11q0 64 -110 114q-119 55 -179 104q-58 48 -86 107q-25 53 -25 119v15q7 147 121 243q111 94 270 93h7q161 -5 255 -97q92 -91 92 -238v-6h-276v17q0 57 -18 83q-22 30 -68 30 q-48 0 -81.5 -32.5t-41.5 -78.5q-1 -6 -1 -12q0 -58 102 -104q114 -51 164 -85q140 -93 140 -250q0 -11 -1 -21q-6 -101 -62.5 -176.5t-150.5 -115.5q-88 -37 -190 -37h-15q-158 4 -258 103q-98 97 -98 247v6z" />
<glyph unicode="t" horiz-adv-x="620" d="M69 869l37 213h121l47 266h276l-46 -266h140l-37 -213h-140l-92 -545l-3 -32q0 -4 -1 -8q0 -59 57 -61h6q19 0 62 5l-25 -222q-62 -25 -144 -25q-121 2 -182 87q-50 69 -50 179q0 25 3 53l93 569h-122z" />
<glyph unicode="u" horiz-adv-x="988" d="M58 243q-3 33 -3 65q0 37 4 74l117 700h276l-117 -704l-3 -49q-1 -9 -1 -17q-1 -38 15 -64q18 -31 56 -32h6q79 0 144 83l136 783h279l-188 -1082h-257l18 99q-100 -120 -234 -120h-4q-106 1 -170 71.5t-74 192.5z" />
<glyph unicode="v" horiz-adv-x="902" d="M102 1082h283l26 -677l238 677h294l-457 -1082h-263z" />
<glyph unicode="w" horiz-adv-x="1267" d="M119 1082h260l-13 -601l243 601h197l34 -605l199 605h270l-405 -1082h-229l-39 622l-256 -622h-231z" />
<glyph unicode="x" horiz-adv-x="909" d="M-69 0l343 566l-152 516h283l66 -319l172 319h303l-330 -542l159 -540h-283l-75 337l-181 -337h-305z" />
<glyph unicode="y" horiz-adv-x="897" d="M-51 -419l24 221l30 -2h4q110 0 162 101l46 103l-112 1078h289l19 -606l245 606h302l-558 -1245q-61 -146 -142 -211.5t-187 -65.5q-43 0 -122 21z" />
<glyph unicode="z" horiz-adv-x="909" d="M-27 0l33 190l512 656h-389l42 236h727l-32 -184l-517 -663h408l-41 -235h-743z" />
<glyph unicode="{" horiz-adv-x="602" d="M45 512l23 208q144 10 172 209l28 204q46 360 365 466l38 -164q-112 -58 -147 -247l-41 -291q-36 -189 -202 -283q95 -81 105 -220q3 -42 -1 -85l-36 -274q-6 -52 -3 -95q7 -96 70 -138l-61 -161q-137 55 -199.5 172.5t-44.5 292.5l29 212l4 60q4 121 -99 134z" />
<glyph unicode="|" horiz-adv-x="513" d="M31 -270l270 1726h173l-270 -1726h-173z" />
<glyph unicode="}" horiz-adv-x="602" d="M-73 -197q112 58 147 247l41 291q36 190 206 282q-100 78 -110 220v68l39 300q5 44 2 87q-7 95 -71 138l65 160q135 -54 196.5 -172t43.5 -292l-29 -212l-4 -60q-4 -123 100 -136l-23 -208q-146 -10 -173 -209l-33 -235q-56 -333 -356 -436z" />
<glyph unicode="~" horiz-adv-x="1117" d="M73 415q9 117 50.5 213.5t109 149.5t159.5 51q122 -4 218 -133l26 -37q36 -47 77 -47q93 0 123 182l197 1q-17 -193 -101.5 -308t-217.5 -113q-117 3 -211 126l-27 36q-40 55 -83 55q-89 0 -119 -179z" />
<glyph unicode="&#xa1;" horiz-adv-x="548" d="M-45 -369l207 1007h229l-142 -1007h-294zM181 941q0 70 43.5 115.5t107.5 45.5q63 2 106.5 -41.5t43.5 -108.5q0 -69 -44 -114.5t-107 -45.5q-63 -2 -106.5 41.5t-43.5 107.5z" />
<glyph unicode="&#xa2;" horiz-adv-x="1021" d="M79 365q-4 81 7 187q30 229 135.5 367.5t274.5 172.5l46 226h187l-46 -230q112 -35 170.5 -142t50.5 -269l-260 1q4 100 -20.5 144t-76.5 47q-145 4 -177 -249q-26 -207 -22 -279q7 -125 95 -128q112 -3 140 161l258 2q-14 -151 -104 -252t-232 -133l-47 -236h-187 l48 238q-109 32 -171 130.5t-69 241.5z" />
<glyph unicode="&#xa3;" horiz-adv-x="1052" d="M-2 0l37 243l70 -2q64 29 84 130l31 204h-124l41 237h118l30 226q25 203 145.5 323t294.5 115q167 -4 257 -117.5t81 -302.5l-274 1q4 97 -19 137t-70 40q-109 0 -134 -218l-23 -204h243l-42 -237h-234l-17 -136q-15 -115 -95 -198l523 3l-42 -244h-881z" />
<glyph unicode="&#xa4;" horiz-adv-x="1384" d="M-4 130l154 127q-27 85 -37 171q-19 145 23.5 288t147.5 260l-115 155l150 133l110 -143q175 116 354 112q185 -2 321 -116l169 148l122 -157l-170 -141q62 -185 42 -352q-25 -202 -157 -359l112 -149l-152 -134l-102 132q-182 -129 -369 -125q-196 4 -331 126l-152 -132 zM294 599q-15 -109 19.5 -209t111.5 -159t182 -63q114 -4 217.5 55t175 166t87.5 228q14 110 -20 208t-111 157t-181 63q-115 4 -220.5 -56t-175 -165t-85.5 -225z" />
<glyph unicode="&#xa5;" horiz-adv-x="953" d="M33 277l31 175h235l21 114h-237l31 176h196l-133 714h290l63 -494l237 494h307l-379 -714h159l-31 -176h-216l-21 -114h218l-31 -175h-217l-48 -277h-287l49 277h-237z" />
<glyph unicode="&#xa6;" horiz-adv-x="511" d="M-28 -270l138 795h256l-138 -795h-256zM139 698l132 758h256l-132 -758h-256z" />
<glyph unicode="&#xa7;" horiz-adv-x="1107" d="M-18 -33l275 -1q-9 -180 148 -180q74 0 124.5 38t61.5 106q15 99 -117 157l-57 24q-197 79 -270 177t-62 237q15 178 181 283q-82 113 -69 278q15 179 151.5 286.5t331.5 103.5q189 -4 290.5 -118t93.5 -310l-275 1q6 188 -129 191q-74 0 -124.5 -40t-62.5 -112 q-15 -103 101 -155l134 -55l69 -34q221 -118 202 -354q-15 -180 -182 -281q81 -112 68 -278q-15 -180 -147.5 -283.5t-331.5 -99.5t-305.5 115t-98.5 304zM368 556q-12 -73 29 -121.5t179 -97.5l43 -17q66 61 80 141q12 68 -34.5 120t-177.5 98l-46 18q-57 -55 -73 -141z " />
<glyph unicode="&#xa8;" horiz-adv-x="940" d="M210 1361q0 53 38.5 92t96.5 41q58 0 97 -37t39 -88q0 -56 -39 -93t-95 -39q-57 0 -97 36.5t-40 87.5zM685 1361q0 56 39 93t95 39q59 0 97.5 -36.5t38.5 -87.5q0 -56 -39 -93t-95 -39q-59 0 -97.5 36.5t-38.5 87.5z" />
<glyph unicode="&#xa9;" horiz-adv-x="1568" d="M114 722q22 198 133 374.5t286 280t372 99.5q178 -2 321 -100.5t215 -272.5t51 -368q-23 -204 -135.5 -380t-287.5 -277.5t-367 -97.5q-186 4 -327 104t-211.5 273t-49.5 365zM231 571q19 -204 147.5 -334.5t316.5 -132.5q184 -4 348 105t256.5 296t74.5 382 q-19 202 -145 330.5t-318 133.5q-185 4 -349.5 -105t-256.5 -295t-74 -380zM444 669l10 101q19 188 123 298t261 108q148 -4 226 -88t74 -228l-152 1q5 90 -31 134.5t-117 46.5q-90 2 -151 -66t-76.5 -185t-16.5 -159l1 -48q5 -75 42 -119.5t103 -47.5q168 -7 199 178l151 1 q-12 -152 -105 -235t-244 -79q-147 4 -228.5 113t-68.5 274z" />
<glyph unicode="&#xaa;" horiz-adv-x="791" d="M184 911q3 114 84.5 177t221.5 63l78 -1l12 54l5 38q4 84 -55 86q-84 2 -108 -99l-165 14q8 106 82.5 171t187.5 63q107 -2 165.5 -76.5t49.5 -200.5l-54 -355l-3 -50q-2 -45 4 -92l-157 -1l-1 33v33q-73 -77 -161 -77q-89 0 -139.5 62t-46.5 158zM349 915 q-11 -78 61 -82q47 0 120 56l34 146l-66 -1q-67 -5 -104.5 -37t-44.5 -82z" />
<glyph unicode="&#xab;" horiz-adv-x="902" d="M56 513l1 19l288 391h185l-265 -414l114 -385h-157zM387 513l1 19l288 391h185l-265 -414l114 -385h-157z" />
<glyph unicode="&#xac;" horiz-adv-x="973" d="M127 634l31 171h689l-75 -431h-188l45 260h-502z" />
<glyph unicode="&#xad;" horiz-adv-x="732" d="M102 506l42 236h476l-42 -236h-476z" />
<glyph unicode="&#xae;" horiz-adv-x="1568" d="M114 722q22 198 133 374.5t286 280t372 99.5q178 -2 321 -100.5t215 -272.5t51 -368q-23 -204 -135.5 -380t-287.5 -277.5t-367 -97.5q-186 4 -327 104t-211.5 273t-49.5 365zM231 571q19 -202 145 -332t319 -135q158 -4 306.5 79.5t247.5 232.5t122 320 q21 159 -31.5 302t-164.5 226t-264 87q-185 4 -349.5 -105t-256.5 -295t-74 -380zM452 316l133 850l259 -1q143 -5 218 -74t68 -181q-6 -110 -135 -186q67 -48 73 -150q1 -30 -5.5 -90.5t-5.5 -88.5l4 -62l-1 -18h-148q-6 37 -4 73l13 128q6 63 -15.5 97t-87.5 38l-165 2 l-53 -337h-148zM673 787l119 -1q82 3 133.5 35t61.5 88q11 59 -18.5 89.5t-117.5 33.5l-139 1z" />
<glyph unicode="&#xaf;" horiz-adv-x="920" d="M268 1287l27 168h584l-27 -168h-584z" />
<glyph unicode="&#xb0;" horiz-adv-x="782" d="M229 1191q2 112 86 200t200 86q101 -2 170.5 -79.5t67.5 -188.5q-4 -119 -87 -202t-194 -81q-105 2 -176 81t-67 184zM372 1193q-6 -48 22.5 -82.5t75.5 -34.5q52 0 93 39.5t47 91.5q7 50 -20 86t-72 36q-52 0 -96 -41.5t-50 -94.5z" />
<glyph unicode="&#xb1;" horiz-adv-x="949" d="M15 1l38 238h711l-38 -238h-711zM109 702l39 243h254l54 341h241l-53 -341h252l-38 -243h-252l-57 -364h-242l58 364h-256z" />
<glyph unicode="&#xb2;" horiz-adv-x="676" d="M84 667l26 149l265 248l30 32q79 84 79 158q0 52 -40 52q-64 0 -85 -113l-194 -1q8 120 84 198.5t189 78.5q114 0 181 -65.5t61 -176.5q-6 -118 -124 -226l-97 -84l-83 -85h256l-29 -165h-519z" />
<glyph unicode="&#xb3;" horiz-adv-x="676" d="M105 905l190 -1q5 -82 67 -82q40 0 65.5 28t31.5 65q13 81 -60 85h-82l12 138h71q82 6 97 94q5 27 -5.5 48.5t-41.5 21.5q-48 0 -75 -59l-198 -1q10 107 83 168t180 59q116 -2 185 -62.5t65 -157.5q-5 -116 -139 -183q100 -43 95 -170q-4 -109 -88.5 -175.5t-210.5 -64.5 q-109 2 -175.5 68.5t-66.5 180.5z" />
<glyph unicode="&#xb4;" horiz-adv-x="670" d="M188 1226l239 310h326l-319 -310h-246z" />
<glyph unicode="&#xb5;" horiz-adv-x="1101" d="M-49 -416l260 1498h275l-101 -622l-10 -95q-5 -146 86 -149q88 -2 155 86l135 780h278l-188 -1082h-246l7 52q-88 -74 -172 -74q-62 0 -121 36l-83 -430h-275z" />
<glyph unicode="&#xb6;" horiz-adv-x="875" d="M149 980q13 138 75.5 248t163.5 169.5t228 59.5l282 -1l-253 -1456h-207l98 522h-54q-113 2 -192 60.5t-116 164.5t-25 233z" />
<glyph unicode="&#xb7;" horiz-adv-x="576" d="M144 690q0 71 44 117t108 46q64 2 107.5 -42t43.5 -109q0 -69 -43.5 -115.5t-108.5 -46.5q-64 -2 -107.5 41.5t-43.5 108.5z" />
<glyph unicode="&#xb8;" horiz-adv-x="506" d="M-41 -464l12 168q77 12 89 90q7 55 -52 65l-40 5l41 142l206 1l-18 -61q94 -28 94 -163q-3 -114 -88 -178t-244 -69z" />
<glyph unicode="&#xb9;" horiz-adv-x="676" d="M228 1169l30 168l326 116h23l-129 -786h-193l94 542z" />
<glyph unicode="&#xba;" horiz-adv-x="816" d="M197 1044l6 63q16 169 106.5 271.5t223.5 98.5q127 -4 195 -104t56 -252l-5 -57q-16 -174 -106.5 -276.5t-223.5 -98.5q-128 4 -196 105.5t-56 249.5zM359 980q0 -65 25.5 -105t71.5 -41q62 -2 103 54t54 156q9 100 9 141q0 66 -25 104.5t-70 40.5q-62 2 -103.5 -53.5 t-54.5 -155.5l-8 -79z" />
<glyph unicode="&#xbb;" horiz-adv-x="903" d="M-8 124l266 413l-115 386h159l166 -388l-2 -20l-287 -391h-187zM330 124l266 413l-115 386h159l166 -388l-2 -20l-287 -391h-187z" />
<glyph unicode="&#xbc;" horiz-adv-x="1247" d="M192 1166l30 168l326 116h23l-129 -786h-193l94 542zM201 202l769 1126l129 -82l-770 -1126zM556 159l13 149l358 480l192 2l-76 -464l61 1l-21 -168l-62 1l-31 -160h-193l28 159h-269zM760 327h93l44 204l-12 -16z" />
<glyph unicode="&#xbd;" horiz-adv-x="1326" d="M167 202l769 1126l129 -82l-770 -1126zM180 1172l30 168l326 116h23l-129 -786h-193l94 542zM613 0l26 149l265 248l30 32q79 84 79 158q0 52 -40 52q-64 0 -85 -113l-194 -1q8 120 84 198.5t189 78.5q114 0 181 -65.5t61 -176.5q-6 -118 -124 -226l-97 -84l-83 -85h256 l-29 -165h-519z" />
<glyph unicode="&#xbe;" horiz-adv-x="1410" d="M143 905l190 -1q5 -82 67 -82q40 0 65.5 28t31.5 65q13 81 -60 85h-82l12 138h71q82 6 97 94q5 27 -5.5 48.5t-41.5 21.5q-48 0 -75 -59l-198 -1q10 107 83 168t180 59q116 -2 185 -62.5t65 -157.5q-5 -116 -139 -183q100 -43 95 -170q-4 -109 -88.5 -175.5t-210.5 -64.5 q-109 2 -175.5 68.5t-66.5 180.5zM333 202l769 1126l129 -82l-770 -1126zM689 159l13 149l358 480l192 2l-76 -464l61 1l-21 -168l-62 1l-31 -160h-193l28 159h-269zM893 327h93l44 204l-12 -16z" />
<glyph unicode="&#xbf;" horiz-adv-x="898" d="M-24 -1q13 150 148 296l128 127q80 85 101 220l236 2q-11 -128 -48 -213t-116 -166l-55 -58q-98 -105 -111 -209l-3 -47q0 -100 71 -102q104 -3 137 173l276 1q-17 -189 -133 -301t-298 -108q-168 4 -257.5 108.5t-75.5 276.5zM387 942q0 70 44 115.5t107 45.5 q63 2 106.5 -41.5t43.5 -108.5q0 -68 -43 -114t-107 -46q-63 -2 -107 41t-44 108z" />
<glyph unicode="&#xc0;" horiz-adv-x="1196" d="M-88 0l694 1456h263l191 -1456h-297l-25 298h-387l-127 -298h-312zM455 1846h293l144 -310h-217zM456 543h262l-41 516z" />
<glyph unicode="&#xc1;" horiz-adv-x="1196" d="M-88 0l694 1456h263l191 -1456h-297l-25 298h-387l-127 -298h-312zM456 543h262l-41 516zM616 1536l239 310h326l-319 -310h-246z" />
<glyph unicode="&#xc2;" horiz-adv-x="1196" d="M-88 0l694 1456h263l191 -1456h-297l-25 298h-387l-127 -298h-312zM433 1552v20l289 274l155 1l224 -278v-18l-210 3l-95 143l-147 -142zM456 543h262l-41 516z" />
<glyph unicode="&#xc3;" horiz-adv-x="1196" d="M-88 0l694 1456h263l191 -1456h-297l-25 298h-387l-127 -298h-312zM449 1565q8 119 66.5 196t144.5 75q42 -1 110 -46.5t110 -42.5q48 3 71 66l10 30l151 -11q-8 -119 -65 -195t-144 -74q-33 0 -59 15l-94 58q-33 18 -65 16q-56 -3 -79 -96zM456 543h262l-41 516z" />
<glyph unicode="&#xc4;" horiz-adv-x="1196" d="M-88 0l694 1456h263l191 -1456h-297l-25 298h-387l-127 -298h-312zM407 1671q0 53 38.5 92t96.5 41q58 0 97 -37t39 -88q0 -56 -39 -93t-95 -39q-57 0 -97 36.5t-40 87.5zM456 543h262l-41 516zM882 1671q0 56 39 93t95 39q59 0 97.5 -36.5t38.5 -87.5q0 -56 -39 -93 t-95 -39q-59 0 -97.5 36.5t-38.5 87.5z" />
<glyph unicode="&#xc5;" horiz-adv-x="1196" d="M-88 0l694 1456h263l191 -1456h-297l-25 298h-387l-127 -298h-312zM456 543h262l-41 516zM576 1723q0 89 67 151t159 62q85 0 146 -57t61 -142q0 -86 -65.5 -147.5t-160.5 -61.5q-85 0 -146 56t-61 139zM689 1724q-5 -41 17 -71t65 -30q46 0 82.5 33t42.5 80 q6 43 -17.5 73t-64.5 30q-44 0 -81.5 -33.5t-43.5 -81.5z" />
<glyph unicode="&#xc6;" horiz-adv-x="1634" d="M-96 0l876 1456h873l-42 -238h-470l-49 -352h393l-42 -238h-384l-55 -390h489l-42 -238h-756l47 333h-317l-186 -333h-335zM563 582h214l69 505z" />
<glyph unicode="&#xc7;" horiz-adv-x="1143" d="M82 452q-2 75 8 151l37 241q47 309 203.5 473t388.5 159q203 -3 312 -134.5t109 -381.5l-289 1l2 99q-3 168 -157 173q-119 4 -188 -86.5t-93 -293.5l-36 -251q-14 -120 -15 -157q-10 -216 152 -223q101 -5 161 53.5t84 208.5l281 2q-27 -237 -174.5 -374.5 t-373.5 -131.5q-194 4 -300 128t-112 344zM319 -465l12 168q77 12 89 90q7 55 -52 65l-40 5l41 142l206 1l-18 -61q94 -28 94 -163q-3 -114 -88 -178t-244 -69z" />
<glyph unicode="&#xc8;" horiz-adv-x="985" d="M9 0l252 1456h811l-43 -245h-523l-60 -344h445l-42 -237h-444l-67 -386h526l-43 -244h-812zM400 1849h293l144 -310h-217z" />
<glyph unicode="&#xc9;" horiz-adv-x="985" d="M9 0l252 1456h811l-43 -245h-523l-60 -344h445l-42 -237h-444l-67 -386h526l-43 -244h-812zM561 1539l239 310h326l-319 -310h-246z" />
<glyph unicode="&#xca;" horiz-adv-x="985" d="M9 0l252 1456h811l-43 -245h-523l-60 -344h445l-42 -237h-444l-67 -386h526l-43 -244h-812zM378 1555v20l289 274l155 1l224 -278v-18l-210 3l-95 143l-147 -142z" />
<glyph unicode="&#xcb;" horiz-adv-x="985" d="M9 0l252 1456h811l-43 -245h-523l-60 -344h445l-42 -237h-444l-67 -386h526l-43 -244h-812zM352 1674q0 53 38.5 92t96.5 41q58 0 97 -37t39 -88q0 -56 -39 -93t-95 -39q-57 0 -97 36.5t-40 87.5zM827 1674q0 56 39 93t95 39q59 0 97.5 -36.5t38.5 -87.5q0 -56 -39 -93 t-95 -39q-59 0 -97.5 36.5t-38.5 87.5z" />
<glyph unicode="&#xcc;" horiz-adv-x="547" d="M21 0l253 1456h287l-253 -1456h-287zM128 1849h293l144 -310h-217z" />
<glyph unicode="&#xcd;" horiz-adv-x="547" d="M21 0l253 1456h287l-253 -1456h-287zM288 1539l239 310h326l-319 -310h-246z" />
<glyph unicode="&#xce;" horiz-adv-x="547" d="M21 0l253 1456h287l-253 -1456h-287zM106 1555v20l289 274l155 1l224 -278v-18l-210 3l-95 143l-147 -142z" />
<glyph unicode="&#xcf;" horiz-adv-x="547" d="M21 0l253 1456h287l-253 -1456h-287zM80 1674q0 53 38.5 92t96.5 41q58 0 97 -37t39 -88q0 -56 -39 -93t-95 -39q-57 0 -97 36.5t-40 87.5zM555 1674q0 56 39 93t95 39q59 0 97.5 -36.5t38.5 -87.5q0 -56 -39 -93t-95 -39q-59 0 -97.5 36.5t-38.5 87.5z" />
<glyph unicode="&#xd0;" horiz-adv-x="1162" d="M-2 641l33 183h150l110 632l359 -1q159 -4 268.5 -83t157 -219t25.5 -313l-32 -213q-44 -294 -212.5 -460t-423.5 -167h-394l111 641h-152zM368 244l71 -2q149 0 231 86.5t110 278.5l34 236q14 115 11 168q-5 100 -51 148t-136 51l-102 1l-67 -387h152l-32 -183h-152z " />
<glyph unicode="&#xd1;" horiz-adv-x="1226" d="M9 0l252 1456h281l255 -966l168 966h286l-253 -1456h-280l-254 965l-168 -965h-287zM465 1565q8 119 66.5 196t144.5 75q42 -1 110 -46.5t110 -42.5q48 3 71 66l10 30l151 -11q-8 -119 -65 -195t-144 -74q-33 0 -59 15l-94 58q-33 18 -65 16q-56 -3 -79 -96z" />
<glyph unicode="&#xd2;" horiz-adv-x="1209" d="M85 445q-4 75 6 152l37 242q29 194 113 344t209 223t282 70q194 -4 304.5 -132.5t118.5 -351.5q2 -84 -9 -159l-33 -223q-45 -300 -202.5 -467.5t-398.5 -162.5q-192 4 -304.5 126t-122.5 339zM370 441q5 -210 165 -217q114 -4 187 84t102 288l35 247q12 103 12 159 q-5 223 -161 229q-120 5 -193.5 -90.5t-102.5 -299.5l-35 -245q-12 -99 -9 -155zM459 1846h293l144 -310h-217z" />
<glyph unicode="&#xd3;" horiz-adv-x="1209" d="M85 445q-4 75 6 152l37 242q29 194 113 344t209 223t282 70q194 -4 304.5 -132.5t118.5 -351.5q2 -84 -9 -159l-33 -223q-45 -300 -202.5 -467.5t-398.5 -162.5q-192 4 -304.5 126t-122.5 339zM370 441q5 -210 165 -217q114 -4 187 84t102 288l35 247q12 103 12 159 q-5 223 -161 229q-120 5 -193.5 -90.5t-102.5 -299.5l-35 -245q-12 -99 -9 -155zM620 1536l239 310h326l-319 -310h-246z" />
<glyph unicode="&#xd4;" horiz-adv-x="1209" d="M85 445q-4 75 6 152l37 242q29 194 113 344t209 223t282 70q194 -4 304.5 -132.5t118.5 -351.5q2 -84 -9 -159l-33 -223q-45 -300 -202.5 -467.5t-398.5 -162.5q-192 4 -304.5 126t-122.5 339zM370 441q5 -210 165 -217q114 -4 187 84t102 288l35 247q12 103 12 159 q-5 223 -161 229q-120 5 -193.5 -90.5t-102.5 -299.5l-35 -245q-12 -99 -9 -155zM437 1552v20l289 274l155 1l224 -278v-18l-210 3l-95 143l-147 -142z" />
<glyph unicode="&#xd5;" horiz-adv-x="1209" d="M85 445q-4 75 6 152l37 242q29 194 113 344t209 223t282 70q194 -4 304.5 -132.5t118.5 -351.5q2 -84 -9 -159l-33 -223q-45 -300 -202.5 -467.5t-398.5 -162.5q-192 4 -304.5 126t-122.5 339zM370 441q5 -210 165 -217q114 -4 187 84t102 288l35 247q12 103 12 159 q-5 223 -161 229q-120 5 -193.5 -90.5t-102.5 -299.5l-35 -245q-12 -99 -9 -155zM453 1565q8 119 66.5 196t144.5 75q42 -1 110 -46.5t110 -42.5q48 3 71 66l10 30l151 -11q-8 -119 -65 -195t-144 -74q-33 0 -59 15l-94 58q-33 18 -65 16q-56 -3 -79 -96z" />
<glyph unicode="&#xd6;" horiz-adv-x="1209" d="M85 445q-4 75 6 152l37 242q29 194 113 344t209 223t282 70q194 -4 304.5 -132.5t118.5 -351.5q2 -84 -9 -159l-33 -223q-45 -300 -202.5 -467.5t-398.5 -162.5q-192 4 -304.5 126t-122.5 339zM370 441q5 -210 165 -217q114 -4 187 84t102 288l35 247q12 103 12 159 q-5 223 -161 229q-120 5 -193.5 -90.5t-102.5 -299.5l-35 -245q-12 -99 -9 -155zM411 1671q0 53 38.5 92t96.5 41q58 0 97 -37t39 -88q0 -56 -39 -93t-95 -39q-57 0 -97 36.5t-40 87.5zM886 1671q0 56 39 93t95 39q59 0 97.5 -36.5t38.5 -87.5q0 -56 -39 -93t-95 -39 q-59 0 -97.5 36.5t-38.5 87.5z" />
<glyph unicode="&#xd7;" horiz-adv-x="941" d="M27 385l303 310l-197 315l179 159l187 -299l291 298l140 -182l-307 -315l194 -308l-179 -160l-184 294l-285 -292z" />
<glyph unicode="&#xd8;" horiz-adv-x="1206" d="M7 -94l169 246q-86 174 -79 402l2 40q16 278 104 479t227.5 304.5t309.5 99.5q132 -4 237 -72l78 113l188 -1l-156 -224q57 -127 69 -262q16 -178 -22 -383t-128 -362t-215 -233.5t-274 -73.5q-127 2 -228 66l-96 -140zM368 458l464 713q-43 54 -112 58q-116 6 -195 -100 t-117 -342q-34 -209 -40 -329zM431 274q39 -45 107 -49q227 -8 302 398q30 165 48 354z" />
<glyph unicode="&#xd9;" horiz-adv-x="1145" d="M93 456l170 1000h288l-168 -1001l-4 -86q0 -140 139 -145q96 -3 150 51t71 180l169 1001h287l-170 -1000q-31 -227 -169 -354t-362 -123q-210 4 -318 132t-83 345zM420 1846h293l144 -310h-217z" />
<glyph unicode="&#xda;" horiz-adv-x="1145" d="M93 456l170 1000h288l-168 -1001l-4 -86q0 -140 139 -145q96 -3 150 51t71 180l169 1001h287l-170 -1000q-31 -227 -169 -354t-362 -123q-210 4 -318 132t-83 345zM581 1536l239 310h326l-319 -310h-246z" />
<glyph unicode="&#xdb;" horiz-adv-x="1145" d="M93 456l170 1000h288l-168 -1001l-4 -86q0 -140 139 -145q96 -3 150 51t71 180l169 1001h287l-170 -1000q-31 -227 -169 -354t-362 -123q-210 4 -318 132t-83 345zM398 1552v20l289 274l155 1l224 -278v-18l-210 3l-95 143l-147 -142z" />
<glyph unicode="&#xdc;" horiz-adv-x="1145" d="M93 456l170 1000h288l-168 -1001l-4 -86q0 -140 139 -145q96 -3 150 51t71 180l169 1001h287l-170 -1000q-31 -227 -169 -354t-362 -123q-210 4 -318 132t-83 345zM372 1671q0 53 38.5 92t96.5 41q58 0 97 -37t39 -88q0 -56 -39 -93t-95 -39q-57 0 -97 36.5t-40 87.5z M847 1671q0 56 39 93t95 39q59 0 97.5 -36.5t38.5 -87.5q0 -56 -39 -93t-95 -39q-59 0 -97.5 36.5t-38.5 87.5z" />
<glyph unicode="&#xdd;" horiz-adv-x="1088" d="M169 1456h302l99 -651l325 651h323l-548 -942l-89 -514h-291l95 543zM562 1536l239 310h326l-319 -310h-246z" />
<glyph unicode="&#xde;" horiz-adv-x="1069" d="M12 0l252 1456h277l-47 -267l141 -1q194 -6 299.5 -127.5t89.5 -314.5q-18 -209 -159 -335t-356 -126l-171 1l-50 -286h-276zM378 521l143 -2q110 2 175 88.5t55 209.5q-5 59 -37.5 95.5t-90.5 40.5l-156 3l-4 5z" />
<glyph unicode="&#xdf;" horiz-adv-x="1121" d="M20 0l188 1101q29 218 154.5 341t317.5 118q155 -4 241.5 -105t74.5 -259q-4 -43 -17 -81t-54.5 -119t-52 -110.5t-16.5 -62.5q-15 -82 63.5 -216.5t83.5 -208.5v-34q-12 -182 -127 -285.5t-296 -99.5q-138 2 -228 59l76 229q77 -57 164 -53q53 2 90 38.5t49 105.5 q7 47 -9 95.5t-62.5 121.5t-66 128t-14.5 106q4 54 29 110l76 158q38 82 32 155q-7 92 -85 97q-58 3 -96.5 -50.5t-54.5 -180.5l-184 -1098h-276z" />
<glyph unicode="&#xe0;" horiz-adv-x="945" d="M22 295q9 172 134 269.5t336 97.5h81l13 88l3 45q0 87 -70 87q-97 3 -118 -124l-275 -2q9 154 128 251.5t290 95.5q161 -4 246.5 -101.5t69.5 -257.5l-88 -550l-4 -53q-4 -70 14 -123l-1 -18h-271q-8 34 -8 84q-92 -105 -210 -105q-125 2 -200.5 92t-69.5 224zM270 1536 h293l144 -310h-217zM304 275q0 -32 16.5 -53t47.5 -22q73 -2 136 64l49 229h-60q-80 -4 -129 -54t-59 -126z" />
<glyph unicode="&#xe1;" horiz-adv-x="945" d="M22 295q9 172 134 269.5t336 97.5h81l13 88l3 45q0 87 -70 87q-97 3 -118 -124l-275 -2q9 154 128 251.5t290 95.5q161 -4 246.5 -101.5t69.5 -257.5l-88 -550l-4 -53q-4 -70 14 -123l-1 -18h-271q-8 34 -8 84q-92 -105 -210 -105q-125 2 -200.5 92t-69.5 224zM304 275 q0 -32 16.5 -53t47.5 -22q73 -2 136 64l49 229h-60q-80 -4 -129 -54t-59 -126zM431 1226l239 310h326l-319 -310h-246z" />
<glyph unicode="&#xe2;" horiz-adv-x="945" d="M22 295q9 172 134 269.5t336 97.5h81l13 88l3 45q0 87 -70 87q-97 3 -118 -124l-275 -2q9 154 128 251.5t290 95.5q161 -4 246.5 -101.5t69.5 -257.5l-88 -550l-4 -53q-4 -70 14 -123l-1 -18h-271q-8 34 -8 84q-92 -105 -210 -105q-125 2 -200.5 92t-69.5 224zM248 1242 v20l289 274l155 1l224 -278v-18l-210 3l-95 143l-147 -142zM304 275q0 -32 16.5 -53t47.5 -22q73 -2 136 64l49 229h-60q-80 -4 -129 -54t-59 -126z" />
<glyph unicode="&#xe3;" horiz-adv-x="945" d="M22 295q9 172 134 269.5t336 97.5h81l13 88l3 45q0 87 -70 87q-97 3 -118 -124l-275 -2q9 154 128 251.5t290 95.5q161 -4 246.5 -101.5t69.5 -257.5l-88 -550l-4 -53q-4 -70 14 -123l-1 -18h-271q-8 34 -8 84q-92 -105 -210 -105q-125 2 -200.5 92t-69.5 224zM264 1256 q8 119 66.5 196t144.5 75q42 -1 110 -46.5t110 -42.5q48 3 71 66l10 30l151 -11q-8 -119 -65 -195t-144 -74q-33 0 -59 15l-94 58q-33 18 -65 16q-56 -3 -79 -96zM304 275q0 -32 16.5 -53t47.5 -22q73 -2 136 64l49 229h-60q-80 -4 -129 -54t-59 -126z" />
<glyph unicode="&#xe4;" horiz-adv-x="945" d="M22 295q9 172 134 269.5t336 97.5h81l13 88l3 45q0 87 -70 87q-97 3 -118 -124l-275 -2q9 154 128 251.5t290 95.5q161 -4 246.5 -101.5t69.5 -257.5l-88 -550l-4 -53q-4 -70 14 -123l-1 -18h-271q-8 34 -8 84q-92 -105 -210 -105q-125 2 -200.5 92t-69.5 224zM222 1361 q0 53 38.5 92t96.5 41q58 0 97 -37t39 -88q0 -56 -39 -93t-95 -39q-57 0 -97 36.5t-40 87.5zM304 275q0 -32 16.5 -53t47.5 -22q73 -2 136 64l49 229h-60q-80 -4 -129 -54t-59 -126zM697 1361q0 56 39 93t95 39q59 0 97.5 -36.5t38.5 -87.5q0 -56 -39 -93t-95 -39 q-59 0 -97.5 36.5t-38.5 87.5z" />
<glyph unicode="&#xe5;" horiz-adv-x="945" d="M22 295q9 172 134 269.5t336 97.5h81l13 88l3 45q0 87 -70 87q-97 3 -118 -124l-275 -2q9 154 128 251.5t290 95.5q161 -4 246.5 -101.5t69.5 -257.5l-88 -550l-4 -53q-4 -70 14 -123l-1 -18h-271q-8 34 -8 84q-92 -105 -210 -105q-125 2 -200.5 92t-69.5 224zM304 275 q0 -32 16.5 -53t47.5 -22q73 -2 136 64l49 229h-60q-80 -4 -129 -54t-59 -126zM391 1413q0 89 67 151t159 62q85 0 146 -57t61 -142q0 -86 -65.5 -147.5t-160.5 -61.5q-85 0 -146 56t-61 139zM504 1414q-5 -41 17 -71t65 -30q46 0 82.5 33t42.5 80q6 43 -17.5 73t-64.5 30 q-44 0 -81.5 -33.5t-43.5 -81.5z" />
<glyph unicode="&#xe6;" horiz-adv-x="1456" d="M23 311q10 161 131 250.5t328 89.5l119 -1l11 57l4 50q2 49 -17.5 79.5t-57.5 31.5q-46 2 -81.5 -29.5t-50.5 -93.5l-273 18q11 155 132 248.5t298 91.5q161 -2 249 -94q125 96 269 92t226 -104t88 -271q2 -58 -5 -114l-25 -163h-518q-4 -41 -1 -81q5 -70 41.5 -109.5 t100.5 -42.5q68 -2 127 20.5t117 54.5l53 -193q-57 -57 -149 -87.5t-194 -30.5q-200 5 -293 135q-145 -139 -333 -135q-141 2 -222.5 92t-73.5 239zM302 307q-7 -48 12.5 -81t71.5 -34q63 0 152 67l38 201l-96 1q-73 -4 -120.5 -46.5t-57.5 -107.5zM869 644l254 -1l11 88 q8 133 -78 138q-114 5 -169 -164z" />
<glyph unicode="&#xe7;" horiz-adv-x="924" d="M56 311q-15 126 14.5 304t109.5 297q131 196 373 190q164 -5 250 -118.5t77 -306.5l-260 1l1 62q-4 124 -98 129q-147 8 -175 -228l-19 -181q-12 -81 -8 -135q7 -109 98 -112q114 -3 141 161l259 1q-17 -180 -133 -290t-283 -106q-151 4 -240.5 90.5t-106.5 241.5z M223 -465l12 168q77 12 89 90q7 55 -52 65l-40 5l41 142l206 1l-18 -61q94 -28 94 -163q-3 -114 -88 -178t-244 -69z" />
<glyph unicode="&#xe8;" horiz-adv-x="961" d="M62 479l9 74q33 269 163.5 411.5t332.5 137.5q148 -4 232.5 -92.5t98.5 -247.5q8 -95 -4 -186l-19 -130h-540q-5 -43 -3 -83q7 -144 141 -147q125 -4 242 95l93 -172q-55 -75 -153.5 -118t-213.5 -41q-131 1 -222.5 64t-132 176.5t-24.5 258.5zM253 1536h293l144 -310 h-217zM354 644l275 -1q10 58 11 94q4 127 -100 132q-119 5 -166 -152z" />
<glyph unicode="&#xe9;" horiz-adv-x="961" d="M62 479l9 74q33 269 163.5 411.5t332.5 137.5q148 -4 232.5 -92.5t98.5 -247.5q8 -95 -4 -186l-19 -130h-540q-5 -43 -3 -83q7 -144 141 -147q125 -4 242 95l93 -172q-55 -75 -153.5 -118t-213.5 -41q-131 1 -222.5 64t-132 176.5t-24.5 258.5zM354 644l275 -1 q10 58 11 94q4 127 -100 132q-119 5 -166 -152zM414 1226l239 310h326l-319 -310h-246z" />
<glyph unicode="&#xea;" horiz-adv-x="961" d="M62 479l9 74q33 269 163.5 411.5t332.5 137.5q148 -4 232.5 -92.5t98.5 -247.5q8 -95 -4 -186l-19 -130h-540q-5 -43 -3 -83q7 -144 141 -147q125 -4 242 95l93 -172q-55 -75 -153.5 -118t-213.5 -41q-131 1 -222.5 64t-132 176.5t-24.5 258.5zM231 1242v20l289 274 l155 1l224 -278v-18l-210 3l-95 143l-147 -142zM354 644l275 -1q10 58 11 94q4 127 -100 132q-119 5 -166 -152z" />
<glyph unicode="&#xeb;" horiz-adv-x="961" d="M62 479l9 74q33 269 163.5 411.5t332.5 137.5q148 -4 232.5 -92.5t98.5 -247.5q8 -95 -4 -186l-19 -130h-540q-5 -43 -3 -83q7 -144 141 -147q125 -4 242 95l93 -172q-55 -75 -153.5 -118t-213.5 -41q-131 1 -222.5 64t-132 176.5t-24.5 258.5zM206 1361q0 53 38.5 92 t96.5 41q58 0 97 -37t39 -88q0 -56 -39 -93t-95 -39q-57 0 -97 36.5t-40 87.5zM354 644l275 -1q10 58 11 94q4 127 -100 132q-119 5 -166 -152zM681 1361q0 56 39 93t95 39q59 0 97.5 -36.5t38.5 -87.5q0 -56 -39 -93t-95 -39q-59 0 -97.5 36.5t-38.5 87.5z" />
<glyph unicode="&#xec;" horiz-adv-x="531" d="M16 0l187 1082h277l-188 -1082h-276zM64 1521h293l144 -310h-217z" />
<glyph unicode="&#xed;" horiz-adv-x="531" d="M16 0l187 1082h277l-188 -1082h-276zM224 1211l239 310h326l-319 -310h-246z" />
<glyph unicode="&#xee;" horiz-adv-x="531" d="M16 0l187 1082h277l-188 -1082h-276zM42 1227v20l289 274l155 1l224 -278v-18l-210 3l-95 143l-147 -142z" />
<glyph unicode="&#xef;" horiz-adv-x="531" d="M16 0l187 1082h277l-188 -1082h-276zM16 1346q0 53 38.5 92t96.5 41q58 0 97 -37t39 -88q0 -56 -39 -93t-95 -39q-57 0 -97 36.5t-40 87.5zM491 1346q0 56 39 93t95 39q59 0 97.5 -36.5t38.5 -87.5q0 -56 -39 -93t-95 -39q-59 0 -97.5 36.5t-38.5 87.5z" />
<glyph unicode="&#xf0;" horiz-adv-x="1008" d="M62 460q15 155 76.5 273.5t155 177t206.5 55.5q98 -4 178 -62q-6 129 -67 242l-168 -116l-56 127l137 88q-63 63 -188 111l110 223q187 -56 306 -175l162 107l53 -129l-124 -77q77 -157 101.5 -318t2.5 -334l-6 -50q-34 -277 -177 -453t-350 -171q-176 5 -273 143 t-79 338zM337 389q0 -77 28 -125.5t79 -50.5q162 -8 213 320l17 120l2 22q-42 70 -129 72q-99 2 -155.5 -100.5t-54.5 -257.5z" />
<glyph unicode="&#xf1;" horiz-adv-x="988" d="M-12 0l188 1082l258 1l-20 -109q114 133 253 129q114 -2 173.5 -85.5t58.5 -237.5l-6 -92l-115 -688h-277l114 690l5 59q4 117 -88 117q-43 0 -73 -23.5t-56 -55.5l-137 -787h-278zM288 1256q8 119 66.5 196t144.5 75q42 -1 110 -46.5t110 -42.5q48 3 71 66l10 30 l151 -11q-8 -119 -65 -195t-144 -74q-33 0 -59 15l-94 58q-33 18 -65 16q-56 -3 -79 -96z" />
<glyph unicode="&#xf2;" horiz-adv-x="998" d="M59 505l6 54q29 255 163 401.5t337 141.5q164 -4 256 -111t101 -287v-71q-13 -314 -150.5 -486.5t-358.5 -166.5q-129 3 -213 69.5t-120.5 184.5t-20.5 271zM284 1536h293l144 -310h-217zM331 392q0 -173 106 -179q144 -8 187 220l11 72q14 144 14 185q0 172 -109 179 q-79 4 -130 -73t-65 -222.5t-14 -181.5z" />
<glyph unicode="&#xf3;" horiz-adv-x="998" d="M59 505l6 54q29 255 163 401.5t337 141.5q164 -4 256 -111t101 -287v-71q-13 -314 -150.5 -486.5t-358.5 -166.5q-129 3 -213 69.5t-120.5 184.5t-20.5 271zM331 392q0 -173 106 -179q144 -8 187 220l11 72q14 144 14 185q0 172 -109 179q-79 4 -130 -73t-65 -222.5 t-14 -181.5zM445 1226l239 310h326l-319 -310h-246z" />
<glyph unicode="&#xf4;" horiz-adv-x="998" d="M59 505l6 54q29 255 163 401.5t337 141.5q164 -4 256 -111t101 -287v-71q-13 -314 -150.5 -486.5t-358.5 -166.5q-129 3 -213 69.5t-120.5 184.5t-20.5 271zM262 1242v20l289 274l155 1l224 -278v-18l-210 3l-95 143l-147 -142zM331 392q0 -173 106 -179q144 -8 187 220 l11 72q14 144 14 185q0 172 -109 179q-79 4 -130 -73t-65 -222.5t-14 -181.5z" />
<glyph unicode="&#xf5;" horiz-adv-x="998" d="M59 505l6 54q29 255 163 401.5t337 141.5q164 -4 256 -111t101 -287v-71q-13 -314 -150.5 -486.5t-358.5 -166.5q-129 3 -213 69.5t-120.5 184.5t-20.5 271zM278 1256q8 119 66.5 196t144.5 75q42 -1 110 -46.5t110 -42.5q48 3 71 66l10 30l151 -11q-8 -119 -65 -195 t-144 -74q-33 0 -59 15l-94 58q-33 18 -65 16q-56 -3 -79 -96zM331 392q0 -173 106 -179q144 -8 187 220l11 72q14 144 14 185q0 172 -109 179q-79 4 -130 -73t-65 -222.5t-14 -181.5z" />
<glyph unicode="&#xf6;" horiz-adv-x="998" d="M59 505l6 54q29 255 163 401.5t337 141.5q164 -4 256 -111t101 -287v-71q-13 -314 -150.5 -486.5t-358.5 -166.5q-129 3 -213 69.5t-120.5 184.5t-20.5 271zM236 1361q0 53 38.5 92t96.5 41q58 0 97 -37t39 -88q0 -56 -39 -93t-95 -39q-57 0 -97 36.5t-40 87.5zM331 392 q0 -173 106 -179q144 -8 187 220l11 72q14 144 14 185q0 172 -109 179q-79 4 -130 -73t-65 -222.5t-14 -181.5zM711 1361q0 56 39 93t95 39q59 0 97.5 -36.5t38.5 -87.5q0 -56 -39 -93t-95 -39q-59 0 -97.5 36.5t-38.5 87.5z" />
<glyph unicode="&#xf7;" horiz-adv-x="1002" d="M63 570l41 232h845l-41 -232h-845zM283 272q0 69 43 113t108 46q63 2 107.5 -40t44.5 -108q0 -69 -43.5 -113.5t-108.5 -44.5q-64 -2 -107.5 40t-43.5 107zM423 1084q0 70 44.5 114t107.5 44q65 2 108.5 -41t43.5 -106q0 -70 -44.5 -114t-107.5 -44q-62 -2 -107 39.5 t-45 107.5z" />
<glyph unicode="&#xf8;" horiz-adv-x="996" d="M16 -141l133 216q-98 131 -98 332q0 59 7 117l2 21q33 252 165 407t336 152q76 -2 146 -28l86 140l160 -1l-132 -214q96 -132 95 -331q-1 -49 -9 -139q-34 -254 -169.5 -406t-333.5 -147q-68 2 -139 25l-89 -145zM310 370l281 488q-25 11 -47 13q-165 8 -212 -323 l-18 -125zM377 221q20 -8 43 -10q155 -4 205 269l9 51q20 137 22 168z" />
<glyph unicode="&#xf9;" horiz-adv-x="988" d="M58 243q-6 71 1 139l117 700h276l-117 -704l-3 -49q-4 -50 14.5 -81t55.5 -32q82 -3 150 83l136 783h279l-188 -1082h-257l18 99q-102 -122 -238 -120q-106 1 -170 71.5t-74 192.5zM290 1536h293l144 -310h-217z" />
<glyph unicode="&#xfa;" horiz-adv-x="988" d="M58 243q-6 71 1 139l117 700h276l-117 -704l-3 -49q-4 -50 14.5 -81t55.5 -32q82 -3 150 83l136 783h279l-188 -1082h-257l18 99q-102 -122 -238 -120q-106 1 -170 71.5t-74 192.5zM451 1226l239 310h326l-319 -310h-246z" />
<glyph unicode="&#xfb;" horiz-adv-x="988" d="M58 243q-6 71 1 139l117 700h276l-117 -704l-3 -49q-4 -50 14.5 -81t55.5 -32q82 -3 150 83l136 783h279l-188 -1082h-257l18 99q-102 -122 -238 -120q-106 1 -170 71.5t-74 192.5zM268 1242v20l289 274l155 1l224 -278v-18l-210 3l-95 143l-147 -142z" />
<glyph unicode="&#xfc;" horiz-adv-x="988" d="M58 243q-6 71 1 139l117 700h276l-117 -704l-3 -49q-4 -50 14.5 -81t55.5 -32q82 -3 150 83l136 783h279l-188 -1082h-257l18 99q-102 -122 -238 -120q-106 1 -170 71.5t-74 192.5zM242 1361q0 53 38.5 92t96.5 41q58 0 97 -37t39 -88q0 -56 -39 -93t-95 -39 q-57 0 -97 36.5t-40 87.5zM717 1361q0 56 39 93t95 39q59 0 97.5 -36.5t38.5 -87.5q0 -56 -39 -93t-95 -39q-59 0 -97.5 36.5t-38.5 87.5z" />
<glyph unicode="&#xfd;" horiz-adv-x="897" d="M-51 -419l24 221l30 -2q113 -2 166 101l46 103l-112 1078h289l19 -606l245 606h302l-558 -1245q-61 -146 -142 -211.5t-187 -65.5q-43 0 -122 21zM411 1226l239 310h326l-319 -310h-246z" />
<glyph unicode="&#xfe;" horiz-adv-x="1001" d="M-75 -416l339 1952h276l-102 -524q92 92 201 90q133 -2 204.5 -106.5t74.5 -299.5v-26q-1 -60 -7 -111l-2 -21q-22 -176 -81.5 -307t-145.5 -193t-194 -59q-119 3 -193 95l-94 -490h-276zM325 294q28 -77 108 -79q164 -4 200 321l11 137q6 190 -98 193q-76 2 -137 -84z " />
<glyph unicode="&#xff;" horiz-adv-x="897" d="M-51 -419l24 221l30 -2q113 -2 166 101l46 103l-112 1078h289l19 -606l245 606h302l-558 -1245q-61 -146 -142 -211.5t-187 -65.5q-43 0 -122 21zM203 1361q0 53 38.5 92t96.5 41q58 0 97 -37t39 -88q0 -56 -39 -93t-95 -39q-57 0 -97 36.5t-40 87.5zM678 1361 q0 56 39 93t95 39q59 0 97.5 -36.5t38.5 -87.5q0 -56 -39 -93t-95 -39q-59 0 -97.5 36.5t-38.5 87.5z" />
<glyph unicode="&#x152;" horiz-adv-x="1681" d="M89 433q-5 71 4 143l46 292q45 285 205.5 447.5t390.5 162.5l51 -2l179 -20h745l-43 -245h-523l-60 -344h444l-42 -237h-443l-67 -386h526l-42 -244h-717l-173 -17l-58 -1q-183 5 -296 127.5t-127 323.5zM364 425q10 -201 164 -208q65 -3 152 8l184 1006q-84 14 -144 14 q-116 2 -194.5 -88.5t-106.5 -261.5l-49 -320q-11 -87 -6 -150z" />
<glyph unicode="&#x153;" horiz-adv-x="1542" d="M70 398q-3 64 4 126l3 21q24 200 120 348q139 213 378 210q176 -5 270 -125q134 128 289 124q135 -3 218 -88t99 -228q9 -86 -1 -173l-26 -164h-503l-1 -76q4 -71 37 -113t90 -44q69 -3 129.5 20t119.5 55l56 -190q-62 -60 -155 -91.5t-196 -29.5q-181 5 -275 125 q-142 -129 -307 -125q-157 2 -249.5 112.5t-99.5 305.5zM341 407q-6 -192 104 -195q165 -9 197 330l10 130q6 193 -104 196q-166 9 -198 -342zM941 647l239 -1l12 88q4 62 -18 98.5t-67 37.5q-90 2 -140 -140z" />
<glyph unicode="&#x178;" horiz-adv-x="1088" d="M169 1456h302l99 -651l325 651h323l-548 -942l-89 -514h-291l95 543zM353 1671q0 53 38.5 92t96.5 41q58 0 97 -37t39 -88q0 -56 -39 -93t-95 -39q-57 0 -97 36.5t-40 87.5zM828 1671q0 56 39 93t95 39q59 0 97.5 -36.5t38.5 -87.5q0 -56 -39 -93t-95 -39 q-59 0 -97.5 36.5t-38.5 87.5z" />
<glyph unicode="&#x2c6;" horiz-adv-x="911" d="M229 1242v20l289 274l155 1l224 -278v-18l-210 3l-95 143l-147 -142z" />
<glyph unicode="&#x2dc;" horiz-adv-x="878" d="M225 1258q8 119 66.5 196t144.5 75q42 -1 110 -46.5t110 -42.5q48 3 71 66l10 30l151 -11q-8 -119 -65 -195t-144 -74q-33 0 -59 15l-94 58q-33 18 -65 16q-56 -3 -79 -96z" />
<glyph unicode="&#x2000;" horiz-adv-x="968" />
<glyph unicode="&#x2001;" horiz-adv-x="1936" />
<glyph unicode="&#x2002;" horiz-adv-x="968" />
<glyph unicode="&#x2003;" horiz-adv-x="1936" />
<glyph unicode="&#x2004;" horiz-adv-x="645" />
<glyph unicode="&#x2005;" horiz-adv-x="484" />
<glyph unicode="&#x2006;" horiz-adv-x="322" />
<glyph unicode="&#x2007;" horiz-adv-x="322" />
<glyph unicode="&#x2008;" horiz-adv-x="242" />
<glyph unicode="&#x2009;" horiz-adv-x="387" />
<glyph unicode="&#x200a;" horiz-adv-x="107" />
<glyph unicode="&#x2010;" horiz-adv-x="732" d="M102 506l42 236h476l-42 -236h-476z" />
<glyph unicode="&#x2011;" horiz-adv-x="732" d="M102 506l42 236h476l-42 -236h-476z" />
<glyph unicode="&#x2012;" horiz-adv-x="732" d="M102 506l42 236h476l-42 -236h-476z" />
<glyph unicode="&#x2013;" horiz-adv-x="1097" d="M142 594l50 238h852l-50 -238h-852z" />
<glyph unicode="&#x2014;" horiz-adv-x="1321" d="M56 594l68 238h1136l-68 -238h-1136z" />
<glyph unicode="&#x2018;" horiz-adv-x="465" d="M182 1047l22 140q36 226 216 384l125 -81q-93 -158 -116 -265l-31 -178h-216z" />
<glyph unicode="&#x2019;" horiz-adv-x="456" d="M152 1090q92 156 116 269l31 177h216l-22 -143q-35 -224 -208 -386z" />
<glyph unicode="&#x201a;" horiz-adv-x="497" d="M-64 -224q90 151 113 289l28 166h226l-25 -153q-36 -221 -216 -383z" />
<glyph unicode="&#x201c;" horiz-adv-x="779" d="M191 1047l22 140q36 226 216 384l125 -81q-93 -158 -116 -265l-31 -178h-216zM495 1047l22 140q36 226 216 384l125 -81q-93 -158 -116 -265l-31 -178h-216z" />
<glyph unicode="&#x201d;" horiz-adv-x="786" d="M166 1090q92 156 116 269l31 177h216l-22 -143q-35 -224 -208 -386zM475 1090q92 156 116 269l31 177h216l-22 -143q-35 -224 -208 -386z" />
<glyph unicode="&#x201e;" horiz-adv-x="776" d="M-67 -244q90 158 116 308l34 199h225l-30 -185q-39 -238 -212 -403zM233 -244q96 171 120 292l37 215h225l-32 -192q-39 -233 -217 -396z" />
<glyph unicode="&#x2022;" horiz-adv-x="725" d="M156 720l2 37q6 108 72.5 174.5t172.5 66.5q100 -2 158 -64.5t58 -164.5l-1 -40q-6 -105 -74.5 -169.5t-171.5 -62.5q-99 2 -157.5 64.5t-58.5 158.5z" />
<glyph unicode="&#x2026;" horiz-adv-x="1327" d="M45 138q0 70 46 116.5t115 46.5t114 -43.5t45 -107.5q0 -72 -48 -117t-114 -45q-70 0 -113 43t-45 107zM444 138q0 70 46 116.5t115 46.5t114 -43.5t45 -107.5q0 -72 -48 -117t-114 -45q-70 0 -113 43t-45 107zM837 138q0 70 46 116.5t115 46.5t114 -43.5t45 -107.5 q0 -72 -48 -117t-114 -45q-70 0 -113 43t-45 107z" />
<glyph unicode="&#x202f;" horiz-adv-x="387" />
<glyph unicode="&#x2039;" horiz-adv-x="575" d="M93 513l1 19l288 391h185l-265 -414l114 -385h-157z" />
<glyph unicode="&#x203a;" horiz-adv-x="555" d="M-9 124l266 413l-115 386h159l166 -388l-2 -20l-287 -391h-187z" />
<glyph unicode="&#x205f;" horiz-adv-x="484" />
<glyph unicode="&#x20ac;" d="M78 515l27 153h133l22 124h-133l26 152h125q66 260 215 397.5t366 134.5q89 -2 203 -33l-63 -244q-66 32 -141 36q-107 2 -179 -68.5t-113 -222.5h260l-27 -152h-251l-22 -124h253l-27 -153h-247q-6 -49 -5 -100q0 -88 41.5 -138t119.5 -51q67 -3 155 29l9 -247 q-106 -27 -210 -25q-137 2 -234 71.5t-139 191.5t-22 270z" />
<glyph unicode="&#x2122;" horiz-adv-x="1110" d="M244 1348l19 108h336l-19 -108h-98l-75 -431h-133l75 431h-105zM558 914l94 542h142l22 -363l157 363h140l-95 -542h-118l58 328l-131 -328l-64 -1l-24 361l-63 -360h-118z" />
<glyph unicode="&#x25fc;" horiz-adv-x="1080" d="M0 0v1080h1080v-1080h-1080z" />
</font>
</defs>
</svg>
