<?xml version="1.0" standalone="no"?>
<!DOCTYPE svg PUBLIC "-//W3C//DTD SVG 1.1//EN" "http://www.w3.org/Graphics/SVG/1.1/DTD/svg11.dtd" >
<svg>
<metadata>
Created by FontForge 20090914 at Fri Jul  5 04:21:52 2019
 By www-data
Copyright (c) 2011-2012, Jonathan Pinhorn (jonpinhorn.typedesign@gmail.com), with Reserved Font Names 'Karla'
</metadata>
<defs>
<font id="Karla-Regular" horiz-adv-x="280" >
  <font-face 
    font-family="Karla"
    font-weight="400"
    font-stretch="normal"
    units-per-em="1000"
    panose-1="0 0 0 0 0 0 0 0 0 0"
    ascent="800"
    descent="-200"
    x-height="478"
    cap-height="629"
    bbox="-86 -246 894.001 879"
    underline-thickness="50"
    underline-position="-50"
    unicode-range="U+0020-U+2212"
  />
<missing-glyph horiz-adv-x="553" 
 />
    <glyph glyph-name=".notdef" horiz-adv-x="553" 
 />
    <glyph glyph-name="space" unicode=" " horiz-adv-x="238" 
 />
    <glyph glyph-name="space" unicode="&#xa0;" horiz-adv-x="238" 
 />
    <glyph glyph-name="exclam" unicode="!" horiz-adv-x="278" 
d="M99 627h83l-9 -451h-64zM98.5 7.5c-11 11 -16.5 24.333 -16.5 40s5.5 29 16.5 40s25 16.5 42 16.5s31.333 -5.5 43 -16.5s17.5 -24.333 17.5 -40s-5.83301 -29 -17.5 -40s-26 -16.5 -43 -16.5s-31 5.5 -42 16.5z" />
    <glyph glyph-name="quotedbl" unicode="&#x22;" horiz-adv-x="306" 
d="M110 681l-11 -220h-60l-11 220h82zM278 681l-11 -220h-60l-11 220h82z" />
    <glyph glyph-name="numbersign" unicode="#" horiz-adv-x="627" 
d="M380 170h-154l-14 -139h-74l14 139h-99l5 54h100l19 178h-101l6 53h100l15 138h74l-15 -138h154l15 138h73l-15 -138h103l-6 -53h-102l-19 -178h103l-6 -54h-103l-14 -139h-74zM232 224h153l19 178h-153z" />
    <glyph glyph-name="dollar" unicode="$" horiz-adv-x="632" 
d="M417 330c46 -15.333 81.832 -35.833 107.499 -61.5s38.5 -60.667 38.5 -105s-19 -83.333 -57 -117s-91 -52.5 -159 -56.5v-81h-62v82c-63.333 5.33301 -115.166 25.166 -155.499 59.499s-60.5 80.5 -60.5 138.5h77c0 -75.333 46.333 -117.333 139 -126v235l-32 12
c-55.333 17.333 -97.166 38 -125.499 62s-42.5 58.333 -42.5 103s16.833 81.834 50.5 111.501s83.5 46.834 149.5 51.501v75h62v-76c58 -4.66699 102.667 -21.334 134 -50.001s50.666 -65.667 57.999 -111h-78c-11.333 53.333 -49.333 84 -114 92v-215zM474.999 167
c0 49.333 -30.667 83.667 -92 103l-36 12v-220c42 3.33301 73.833 15.333 95.5 36s32.5 43.667 32.5 69zM198.999 536.001c-19.333 -18 -29 -39.167 -29 -63.5s6.66699 -43.333 20 -57s35 -25.167 65 -34.5l30 -11v199c-38 -4 -66.667 -15 -86 -33z" />
    <glyph glyph-name="percent" unicode="%" horiz-adv-x="726" 
d="M279 602c25.333 -25.333 38.001 -60.668 38.001 -106.001s-12.5 -80.5 -37.5 -105.5s-55.5 -37.5 -91.5 -37.5s-66.167 12.667 -90.5 38s-36.5 60.333 -36.5 105s12.333 79.834 37 105.501s54.667 38.5 90 38.5s65.666 -12.667 90.999 -38zM235.001 564.998
c-12 14.667 -27.667 22 -47 22s-35 -7.33301 -47 -22s-18 -37.667 -18 -69s6 -54 18 -68s27.667 -21 47 -21s35 7 47 21s18 36.667 18 68s-6 54.333 -18 69zM534.001 628.998h82l-423 -629h-81zM538.001 275.998c36 0 66.5 -12.5 91.5 -37.5s37.5 -60.333 37.5 -106
s-12.5 -81 -37.5 -106s-55.5 -37.5 -91.5 -37.5s-66.167 12.667 -90.5 38s-36.5 60.5 -36.5 105.5s12.167 80.167 36.5 105.5s54.5 38 90.5 38zM538.001 222.998c-19.333 0 -35 -7.33301 -47 -22s-18 -37.667 -18 -69s6 -54 18 -68s27.667 -21 47 -21s35 7 47 21
s18 36.667 18 68s-6 54.333 -18 69s-27.667 22 -47 22z" />
    <glyph glyph-name="ampersand" unicode="&#x26;" horiz-adv-x="916" 
d="M725 350c-30 -91.333 -68.3301 -165.333 -114.997 -222l43 -37c13.333 -11.333 25.166 -19.666 35.499 -24.999s23.666 -8 39.999 -8s31 6.16699 44 18.5s20.5 33.5 22.5 63.5h74c-2.66699 -48 -15.167 -85.167 -37.5 -111.5s-54.833 -39.5 -97.5 -39.5
c-26 0 -50 5.33301 -72 16s-46 27.667 -72 51l-26 22c-66.667 -59.333 -142.667 -89 -228 -89c-70 0 -128.667 17.5 -176 52.5s-71 77.167 -71 126.5s15.833 86.5 47.5 111.5s78.167 42.5 139.5 52.5l-14 13c-51.333 44.667 -77 93.667 -77 147c0 42 17.5 77 52.5 105
s81.333 42 139 42s103.667 -14 138 -42s51.5 -61.833 51.5 -101.5s-13 -73.834 -39 -102.501s-68.333 -55.667 -127 -81l158 -139c45.333 54.667 82.666 123.667 111.999 207zM211.503 251c-24.333 -18 -36.501 -43 -36.501 -75s13.833 -59.5 41.5 -82.5
s70.167 -34.5 127.5 -34.5s113 22 167 66l-186 163c-51.333 -6.66699 -89.166 -19 -113.499 -37zM480.002 488c0 24 -9.16699 43.999 -27.5 59.999s-44 24 -77 24s-58.667 -9.16699 -77 -27.5s-27.5 -38.166 -27.5 -59.499s4.33301 -40.333 13 -57s23 -33.667 43 -51l27 -25
c69.333 32 109.333 65.333 120 100c4 11.333 6 23.333 6 36z" />
    <glyph glyph-name="quotesingle" unicode="'" horiz-adv-x="136" 
d="M109 677l-11 -220h-60l-11 220h82z" />
    <glyph glyph-name="parenleft" unicode="(" horiz-adv-x="356" 
d="M155 307c0 -136.667 57.667 -263.332 173 -379.999l-57 -40c-65.333 59.333 -114.666 125 -147.999 197s-50 146.5 -50 223.5s16.667 151.333 50 223s82.666 137.5 147.999 197.5l57 -41c-115.333 -116.667 -173 -243.334 -173 -380.001z" />
    <glyph glyph-name="parenright" unicode=")" horiz-adv-x="356" 
d="M201 307c0 136.667 -57.667 263.332 -173 379.999l57 41c65.333 -60 114.666 -125.833 147.999 -197.5s50 -146 50 -223s-16.667 -151.5 -50 -223.5s-82.666 -137.667 -147.999 -197l-57 40c115.333 116.667 173 243.334 173 380.001z" />
    <glyph glyph-name="asterisk" unicode="*" horiz-adv-x="412" 
d="M173 516l-117 40l24 54l106 -54l-10 128h62l-10 -128l106 54l24 -54l-116 -40l90 -89l-44 -39l-80 104l-80 -104l-45 39z" />
    <glyph glyph-name="plus" unicode="+" horiz-adv-x="527" 
d="M303 491v-212h206v-67h-206v-212h-79v212h-206v67h206v212h79z" />
    <glyph glyph-name="comma" unicode="," horiz-adv-x="210" 
d="M67 10c-10 8.66699 -15 20.335 -15 35.002s5.16699 27 15.5 37s25 15 44 15s34.833 -7.5 47.5 -22.5s19 -33.833 19 -56.5s-7.33301 -45.834 -22 -69.501s-37 -42.834 -67 -57.501l-59 29c41.333 20 66.333 45 75 75c-15.333 1.33301 -28 6.33301 -38 15z" />
    <glyph glyph-name="hyphen" unicode="-" horiz-adv-x="349" 
d="M38 325h272v-68h-272v68z" />
    <glyph glyph-name="period" unicode="." horiz-adv-x="179" 
d="M46.5 7.5c-11 11 -16.5 24.333 -16.5 40s5.5 29 16.5 40s25 16.5 42 16.5s31.167 -5.5 42.5 -16.5s17 -24.333 17 -40s-5.66699 -29 -17 -40s-25.5 -16.5 -42.5 -16.5s-31 5.5 -42 16.5z" />
    <glyph glyph-name="slash" unicode="/" horiz-adv-x="432" 
d="M308 731h80l-252 -804h-79z" />
    <glyph glyph-name="zero" unicode="0" horiz-adv-x="594" 
d="M478 556c44 -56 66 -136.498 66 -241.498s-22 -185.5 -66 -241.5s-104 -84 -180 -84s-136.167 27.667 -180.5 83s-66.5 136.166 -66.5 242.499s22.167 187.166 66.5 242.499s104.5 83 180.5 83s136 -28 180 -84zM420 502.502c-28 43.667 -68.833 65.5 -122.5 65.5
s-94.5 -21.833 -122.5 -65.5s-42 -106.334 -42 -188.001s14 -144.334 42 -188.001s68.833 -65.5 122.5 -65.5s94.5 21.833 122.5 65.5s42 106.334 42 188.001s-14 144.334 -42 188.001z" />
    <glyph glyph-name="one" unicode="1" horiz-adv-x="331" 
d="M49 580c44.667 6 83.666 23 116.999 51h64v-631h-78v537c-33.333 -21.333 -67.666 -33 -102.999 -35v78z" />
    <glyph glyph-name="two" unicode="2" horiz-adv-x="580" 
d="M143 73h364.999v-73h-444v93c0 74 28 128.333 84 163c18 11.333 38 21.333 60 30l124 50c64 25.333 96 67 96 125c0 32 -11 58.167 -33 78.5s-52.833 30.5 -92.5 30.5s-72 -8.33301 -97 -25s-39.5 -41.667 -43.5 -75h-87c3.33301 54.667 25.333 96.667 66 126
s92.834 44 156.501 44s115.5 -17.333 155.5 -52s60 -77.5 60 -128.5s-13.167 -91.5 -39.5 -121.5s-62.5 -54 -108.5 -72l-127 -51c-32 -13.333 -55.833 -28.5 -71.5 -45.5s-23.5 -39.167 -23.5 -66.5v-30z" />
    <glyph glyph-name="three" unicode="3" horiz-adv-x="591" 
d="M505 468c0 -66.667 -36.667 -113 -110 -139c40 -11.333 72.333 -30 97 -56s37 -59.333 37 -100c0 -55.333 -21 -99.833 -63 -133.5s-97.333 -50.5 -166 -50.5s-127.167 17.833 -175.5 53.5s-72.5 85.834 -72.5 150.501h82c1.33301 -42.667 17.166 -75.334 47.499 -98.001
s68.833 -34 115.5 -34s82.834 11.167 108.501 33.5s38.5 50 38.5 83s-12.333 60 -37 81s-64.667 31.5 -120 31.5h-72v63h49c48 0 86 9.5 114 28.5s42 44.5 42 76.5s-11.333 58.333 -34 79s-52.667 31 -90 31s-68.5 -6.5 -93.5 -19.5s-41.833 -37.167 -50.5 -72.5h-82
c7.33301 55.333 30.333 96.5 69 123.5s88.5 40.5 149.5 40.5s112.333 -16.167 154 -48.5s62.5 -73.5 62.5 -123.5z" />
    <glyph glyph-name="four" unicode="4" horiz-adv-x="559" 
d="M428 638v-418h109v-68h-109v-152h-77v152h-325v61l329 425h73zM120 213h233v300z" />
    <glyph glyph-name="five" unicode="5" horiz-adv-x="565" 
d="M427 204c0 79.333 -51.6689 118.999 -155.002 118.999h-169l27 306h349v-72h-273l-17 -181c34.667 6 67.667 9 99 9c68.667 0 122.667 -15.167 162 -45.5s59 -76.166 59 -137.499s-20.667 -112.166 -62 -152.499s-94.666 -60.5 -159.999 -60.5
s-118.666 16.5 -159.999 49.5s-62 78.5 -62 136.5h79c0 -54.667 28 -90.334 84 -107.001c17.333 -4.66699 36.333 -7 57 -7c42.667 0 77 13.5 103 40.5s39 61.167 39 102.5z" />
    <glyph glyph-name="six" unicode="6" horiz-adv-x="573" 
d="M425 470c-11.333 65.333 -47.001 97.998 -107.001 97.998s-106.167 -24.667 -138.5 -74s-48.5 -116.666 -48.5 -201.999c0 -35.333 1.66699 -64.666 5 -87.999c4 61.333 22.833 105.833 56.5 133.5s76.834 41.5 129.501 41.5s98 -18.5 136 -55.5s57 -84.333 57 -142
s-19.667 -104.334 -59 -140.001s-91 -53.5 -155 -53.5c-74.667 0 -135 30 -181 90s-69 138.833 -69 236.5s23.333 176.334 70 236.001s110.334 89.5 191.001 89.5c56 0 101.667 -15.667 137 -47s55.666 -72.333 60.999 -123h-85zM207.499 273.498
c-25 -23.667 -37.5 -53.833 -37.5 -90.5s12.333 -66.167 37 -88.5s56 -33.5 94 -33.5s69.5 11 94.5 33s37.5 52.333 37.5 91s-12.5 69 -37.5 91s-56.333 33 -94 33s-69 -11.833 -94 -35.5z" />
    <glyph glyph-name="seven" unicode="7" horiz-adv-x="470" 
d="M452 629v-73l-288 -556h-106l302 553h-336v76h428z" />
    <glyph glyph-name="eight" unicode="8" horiz-adv-x="615" 
d="M201 318c-83.333 38 -125 89.6689 -125 155.002c0 50 20.667 90.333 62 121s96.166 46 164.499 46s124.5 -16.333 168.5 -49s66 -74.667 66 -126c0 -34.667 -11.5 -65.667 -34.5 -93s-56.833 -44.333 -101.5 -51l17 -6c46 -17.333 81.333 -37.833 106 -61.5
s37 -55.834 37 -96.501c0 -50.667 -22.5 -91.334 -67.5 -122.001s-105.667 -46 -182 -46s-138.166 17 -185.499 51s-71 76.667 -71 128c0 41.333 13.5 75 40.5 101s62.167 42.333 105.5 49zM276 289.002c-42 -4.66699 -75.667 -17.833 -101 -39.5s-38 -48.5 -38 -80.5
s16 -58 48 -78s73.833 -30 125.5 -30s92.667 8.66699 123 26s45.5 38.333 45.5 63s-8 44.5 -24 59.5s-38 27.5 -66 37.5zM159 463.003c0 -18 7.33203 -33.502 21.999 -46.502s35.667 -24.833 63 -35.5l73 -28c40 1.33301 73 11.833 99 31.5s39 45.334 39 77.001
s-13.667 57.334 -41 77.001s-62.666 29.5 -105.999 29.5s-79 -9.5 -107 -28.5s-42 -44.5 -42 -76.5z" />
    <glyph glyph-name="nine" unicode="9" horiz-adv-x="581" 
d="M282 640c34 0 66.332 -7.33301 96.999 -22s57 -35.667 79 -63c48 -58.667 72 -135 72 -229c0 -163.333 -45.333 -268 -136 -314c-31.333 -15.333 -65.333 -23 -102 -23c-68.667 0 -123 18.667 -163 56s-60 84.333 -60 141h83c1.33301 -38 13.333 -68.333 36 -91
s51.334 -34 86.001 -34s62.667 6.33301 84 19c60.667 38 91 123.667 91 257c0 27.333 -1.66699 52 -5 74c-6.66699 -54 -26.167 -94.333 -58.5 -121s-74.666 -40 -126.999 -40s-97.5 18.5 -135.5 55.5s-57 84.167 -57 141.5c0 58 19.667 104.667 59 140
s91.666 53 156.999 53zM278.999 567c-38 0 -69.333 -11.001 -94 -33.001s-37 -52.333 -37 -91s12.5 -69 37.5 -91s56.333 -33 94 -33s69 11.833 94 35.5s37.5 53.834 37.5 90.501s-12.5 66.167 -37.5 88.5s-56.5 33.5 -94.5 33.5z" />
    <glyph glyph-name="colon" unicode=":" horiz-adv-x="231" 
d="M72.5 39.5c-11 11 -16.5 24.333 -16.5 40s5.5 29 16.5 40s25 16.5 42 16.5s31.167 -5.5 42.5 -16.5s17 -24.333 17 -40s-5.66699 -29 -17 -40s-25.5 -16.5 -42.5 -16.5s-31 5.5 -42 16.5zM72.5 345.5c-11 11 -16.5 24.333 -16.5 40s5.5 29 16.5 40s25 16.5 42 16.5
s31.167 -5.5 42.5 -16.5s17 -24.333 17 -40s-5.66699 -29 -17 -40s-25.5 -16.5 -42.5 -16.5s-31 5.5 -42 16.5z" />
    <glyph glyph-name="semicolon" unicode=";" horiz-adv-x="262" 
d="M94 10c-10 8.66699 -15 20.335 -15 35.002s5.16699 27 15.5 37s25 15 44 15s34.833 -7.5 47.5 -22.5s19 -33.833 19 -56.5s-7.33301 -45.834 -22 -69.501s-37 -42.834 -67 -57.501l-59 29c41.333 20 66.333 45 75 75c-15.333 1.33301 -28 6.33301 -38 15zM98.5 345.501
c-11 11 -16.5 24.333 -16.5 40s5.5 29 16.5 40s25 16.5 42 16.5s31.167 -5.5 42.5 -16.5s17 -24.333 17 -40s-5.66699 -29 -17 -40s-25.5 -16.5 -42.5 -16.5s-31 5.5 -42 16.5z" />
    <glyph glyph-name="less" unicode="&#x3c;" horiz-adv-x="454" 
d="M408 512l-288 -207l288 -204l-52 -61l-316 231v69l316 232z" />
    <glyph glyph-name="equal" unicode="=" horiz-adv-x="488" 
d="M409 185v-68h-330v68h330zM409 377v-69h-330v69h330z" />
    <glyph glyph-name="greater" unicode="&#x3e;" horiz-adv-x="454" 
d="M98 572l316 -232v-69l-316 -231l-51 61l286 204l-286 207z" />
    <glyph glyph-name="question" unicode="?" horiz-adv-x="499" 
d="M248 568c-78 0 -122.668 -30.6689 -134.001 -92.002h-84c4.66699 49.333 25 89 61 119s86.5 45 151.5 45s116.333 -16 154 -48s56.5 -71 56.5 -117c0 -34.667 -8.66699 -63.5 -26 -86.5s-45.333 -45.167 -84 -66.5c-16.667 -9.33301 -30.667 -17.666 -42 -24.999
s-20.333 -15.666 -27 -24.999c-12.667 -16.667 -19 -40.667 -19 -72v-39h-78v45c0 42 7 74.167 21 96.5s39.333 43.5 76 63.5s61.334 37.5 74.001 52.5s19 35.167 19 60.5s-10.5 46.5 -31.5 63.5s-50.167 25.5 -87.5 25.5zM216.999 101.998
c17.333 0 31.666 -5.66699 42.999 -17s17 -24.833 17 -40.5s-5.66699 -28.834 -17 -39.501s-25.666 -16 -42.999 -16s-31.333 5.33301 -42 16s-16 23.834 -16 39.501s5.33301 29.167 16 40.5s24.667 17 42 17z" />
    <glyph glyph-name="at" unicode="@" horiz-adv-x="940" 
d="M575 289c0 56 -19.665 83.998 -58.998 83.998s-74.666 -16.167 -105.999 -48.5s-47 -73.166 -47 -122.499c0 -35.333 9.16699 -62.666 27.5 -81.999s41.166 -29 68.499 -29s49.666 7.83301 66.999 23.5s33.666 38.5 48.999 68.5v106zM641.002 137.998
c0 -34 13.001 -50.999 39.001 -50.999c13.333 0 27.833 4.5 43.5 13.5s29.834 22.167 42.501 39.5c30.667 40.667 46 92.667 46 156c0 79.333 -27 144.666 -81 195.999s-127.333 77 -220 77c-54.667 0 -104.334 -9.33301 -149.001 -28s-82.667 -43.667 -114 -75
c-66.667 -66.667 -100 -149.667 -100 -249s35.333 -179.833 106 -241.5s167.667 -92.5 291 -92.5v-64c-142 0 -257.667 38.333 -347 115c-42 36 -74.333 78.833 -97 128.5s-34 104.167 -34 163.5s11 114.333 33 165s52.667 94.5 92 131.5s86.166 65.833 140.499 86.5
s111.833 31 172.5 31s114.667 -9 162 -27s87.666 -42.5 120.999 -73.5s59.333 -67.5 78 -109.5s28 -85.333 28 -130c0 -81.333 -21.5 -147 -64.5 -197s-93.167 -75 -150.5 -75c-28.667 0 -51.667 6 -69 18s-27.666 29.333 -30.999 52l-3 16c-12 -25.333 -28 -46 -48 -62
s-43.333 -24 -70 -24c-49.333 0 -89.833 16.333 -121.5 49s-47.5 74 -47.5 124c0 66 22 121.5 66 166.5s96.333 67.5 157 67.5c40 0 71.5 -12 94.5 -36s34.5 -60.333 34.5 -109v-152z" />
    <glyph glyph-name="A" unicode="A" horiz-adv-x="575" 
d="M242 629h96l211 -629h-82l-54 160h-250l-54 -160h-83zM184 222h209l-104 310z" />
    <glyph glyph-name="B" unicode="B" horiz-adv-x="622" 
d="M101 629l235 -0.00195312c66 0 116.833 -15.667 152.5 -47s53.5 -70.666 53.5 -117.999c0 -36 -9.83301 -67.333 -29.5 -94s-49.5 -44.667 -89.5 -54c39.333 -6.66699 70.833 -23.667 94.5 -51s35.5 -58.333 35.5 -93c0 -77.333 -37.667 -129.666 -113 -156.999
c-28 -10 -62.333 -15 -103 -15h-236v629zM335 68.998c48 0 82.333 9.66699 103 29s31 45 31 77s-11.333 57.5 -34 76.5s-56 28.5 -100 28.5h-155v-211h155zM180 347.998h154c38.667 0 69.5 9.5 92.5 28.5s34.5 45.167 34.5 78.5s-11.167 59.333 -33.5 78s-53.5 28 -93.5 28
h-154v-213z" />
    <glyph glyph-name="C" unicode="C" horiz-adv-x="613" 
d="M319 640c67.333 0 121.499 -16.833 162.499 -50.5s69.167 -77.5 84.5 -131.5l-85 -17c-13.333 39.333 -34.166 70.5 -62.499 93.5s-61.5 34.5 -99.5 34.5c-52.667 0 -96.334 -22 -131.001 -66s-52 -105.167 -52 -183.5s15.5 -141.166 46.5 -188.499s76.5 -71 136.5 -71
c50 0 89.5 13.167 118.5 39.5s43.5 61.166 43.5 104.499h85c0 -66 -22.5 -118.333 -67.5 -157s-106.667 -58 -185 -58s-141.666 30 -189.999 90s-72.5 140.333 -72.5 241s25 179.167 75 235.5s114.333 84.5 193 84.5z" />
    <glyph glyph-name="D" unicode="D" horiz-adv-x="661" 
d="M285 629c94.667 0 170.5 -28.5 227.5 -85.5s85.5 -133.333 85.5 -229s-28.5 -172 -85.5 -229s-132.833 -85.5 -227.5 -85.5h-185v629h185zM179 69l106 0.000976562c70 0 125.667 23.167 167 69.5s62 105.166 62 176.499s-20.833 129.833 -62.5 175.5
s-97.167 68.5 -166.5 68.5h-106v-490z" />
    <glyph glyph-name="E" unicode="E" horiz-adv-x="562" 
d="M100 629h387v-68h-308v-211h290v-67h-290v-214h308v-69h-387v629z" />
    <glyph glyph-name="F" unicode="F" horiz-adv-x="524" 
d="M101 629h382v-68h-303v-209h282v-68h-282v-284h-79v629z" />
    <glyph glyph-name="G" unicode="G" horiz-adv-x="645" 
d="M490 108c-28 -79.333 -82.333 -119 -163 -119s-146.834 29.333 -198.501 88s-77.5 137.667 -77.5 237s28.167 178.333 84.5 237s126.5 88 210.5 88c49.333 0 92.5 -10 129.5 -30s68.833 -52 95.5 -96l-76 -26c-43.333 54 -94 81 -152 81s-107.167 -23.667 -147.5 -71
s-60.5 -108.833 -60.5 -184.5s17.333 -136.5 52 -182.5s81.334 -69 140.001 -69c48 0 86.667 16 116 48s44 79.333 44 142v2l-158 6v52h235v-311h-64z" />
    <glyph glyph-name="H" unicode="H" horiz-adv-x="669" 
d="M180 629v-277h309v277h79v-629h-79v284h-309v-284h-79v629h79z" />
    <glyph glyph-name="I" unicode="I" 
d="M101 629h79v-629h-79v629z" />
    <glyph glyph-name="J" unicode="J" horiz-adv-x="404" 
d="M277.5 34c-31 -30 -70.5 -45 -118.5 -45s-98.333 14 -151 42v82c46.667 -32 90.5 -48 131.5 -48s68.833 10 83.5 30s22 49 22 87v447h79v-447c0 -68.667 -15.5 -118 -46.5 -148z" />
    <glyph glyph-name="K" unicode="K" horiz-adv-x="609" 
d="M181 629v-291l281 291h109l-275 -283l292 -346h-102l-243 291l-62 -64v-227h-80v629h80z" />
    <glyph glyph-name="L" unicode="L" horiz-adv-x="468" 
d="M180 69h280v-69h-359v629h79v-560z" />
    <glyph glyph-name="M" unicode="M" horiz-adv-x="848" 
d="M214 629l212 -426l210 426h111v-629h-79v517l-216 -438h-53l-219 445v-524h-79v629h113z" />
    <glyph glyph-name="N" unicode="N" horiz-adv-x="685" 
d="M193 629l312 -505v505h79v-629h-88l-317 512v-512h-80v629h94z" />
    <glyph glyph-name="O" unicode="O" horiz-adv-x="646" 
d="M323 640c81.333 0 147.167 -27.833 197.5 -83.5s75.5 -136.667 75.5 -243s-25 -187 -75 -242s-116 -82.5 -198 -82.5s-147.833 27.833 -197.5 83.5s-74.5 136.167 -74.5 241.5c0 106 24.833 186.833 74.5 242.5s115.5 83.5 197.5 83.5zM323.001 569
c-58.667 0 -105 -22 -139 -66s-51 -107.333 -51 -190s17 -145.334 51 -188.001s80.333 -64 139 -64s105.167 21.333 139.5 64s51.5 105.334 51.5 188.001s-17.167 146 -51.5 190s-80.833 66 -139.5 66z" />
    <glyph glyph-name="P" unicode="P" horiz-adv-x="554" 
d="M460.5 576.5c36.333 -35 54.5 -82.168 54.5 -141.501s-18.167 -106.166 -54.5 -140.499s-89.166 -51.5 -158.499 -51.5h-124v-243h-79v629h203c69.333 0 122.166 -17.5 158.499 -52.5zM302 310.999c43.333 0 76.166 11 98.499 33s33.5 52.167 33.5 90.5
s-11.167 69 -33.5 92s-55.166 34.5 -98.499 34.5h-124v-250h124z" />
    <glyph glyph-name="Q" unicode="Q" horiz-adv-x="652" 
d="M596 -148c-26.667 -12.667 -54.665 -18.998 -83.998 -18.998c-56.667 0 -105.334 29.667 -146.001 89l-47 67c-80.667 1.33301 -145.5 29.666 -194.5 84.999s-73.5 135.666 -73.5 240.999s24.833 185.833 74.5 241.5s115.5 83.5 197.5 83.5
c81.333 0 147.166 -27.833 197.499 -83.5s75.5 -136.5 75.5 -242.5c0 -88 -17.667 -158.833 -53 -212.5s-83.333 -88.167 -144 -103.5l31 -44c19.333 -26 42.333 -39.667 69 -41c28.667 0 61 8.33301 97 25v-86zM323.002 569.002c-58.667 0 -105 -22 -139 -66
s-51 -107.333 -51 -190s17 -145.334 51 -188.001s80.333 -64 139 -64s105.167 21.333 139.5 64s51.5 105.334 51.5 188.001s-17.167 146 -51.5 190s-80.833 66 -139.5 66z" />
    <glyph glyph-name="R" unicode="R" horiz-adv-x="613" 
d="M497.5 323c-27.667 -32 -68.501 -52.667 -122.501 -62l180 -261h-102l-163 257h-110v-257h-79v629h219c70.667 0 124.834 -17 162.501 -51s56.5 -77 56.5 -129s-13.833 -94 -41.5 -126zM313.999 312c47.333 0 83.168 11.5 107.501 34.5s36.5 53.333 36.5 91
s-11.833 67.667 -35.5 90s-57.834 33.5 -102.501 33.5h-140v-249h134z" />
    <glyph glyph-name="S" unicode="S" horiz-adv-x="605" 
d="M436 476c-11.333 61.333 -56.3359 92 -135.003 92c-42 0 -74.333 -9.16699 -97 -27.5s-34 -40.333 -34 -66s7 -45.167 21 -58.5s36.667 -25 68 -35l131 -45c44.667 -15.333 80.167 -36.333 106.5 -63s39.5 -64.167 39.5 -112.5s-20.667 -89 -62 -122
s-96.666 -49.5 -165.999 -49.5s-126.166 17.5 -170.499 52.5s-67.166 84.167 -68.499 147.5h77c0 -41.333 14.5 -73 43.5 -95s66.333 -33 112 -33s81.834 10.167 108.501 30.5s40 44.333 40 72s-8.16699 49.5 -24.5 65.5s-40.5 29.333 -72.5 40l-111 41
c-52 17.333 -91.333 38 -118 62s-40 59.167 -40 105.5s18.667 85 56 116s89.666 46.5 156.999 46.5s118.833 -14.833 154.5 -44.5s56.167 -69.5 61.5 -119.5h-77z" />
    <glyph glyph-name="T" unicode="T" horiz-adv-x="501" 
d="M6 629h489v-68h-205v-561h-79v561h-205v68z" />
    <glyph glyph-name="U" unicode="U" horiz-adv-x="654" 
d="M166 629v-402c0 -58.667 14.667 -101 44 -127s68 -39 116 -39s86.667 13 116 39s44 68.333 44 127v402h79v-402c0 -78.667 -21.667 -138 -65 -178s-101.5 -60 -174.5 -60s-131 20 -174 60s-64.5 99.333 -64.5 178v402h79z" />
    <glyph glyph-name="V" unicode="V" horiz-adv-x="563" 
d="M101 629l180 -529l181 529h83l-223 -629h-82l-222 629h83z" />
    <glyph glyph-name="W" unicode="W" horiz-adv-x="895" 
d="M102 629l153 -523l155 458h53l154 -458l176 523h87l-222 -629h-83l-137 403l-142 -403h-83l-199 629h88z" />
    <glyph glyph-name="X" unicode="X" horiz-adv-x="642" 
d="M593 0h-98l-182 251l-169 -251h-96l222 312l-223 317h95l180 -257l166 257h95l-217 -316z" />
    <glyph glyph-name="Y" unicode="Y" horiz-adv-x="549" 
d="M104 629l169 -289l173 289h93l-226 -371v-258h-80v258l-223 371h94z" />
    <glyph glyph-name="Z" unicode="Z" horiz-adv-x="592" 
d="M73 71l363 483l-363 3v72h462v-71l-363 -483l363 -3v-72h-462v71z" />
    <glyph glyph-name="bracketleft" unicode="[" horiz-adv-x="317" 
d="M101 731h198v-70h-119v-693h119v-70h-198v833z" />
    <glyph glyph-name="backslash" unicode="\" horiz-adv-x="432" 
d="M45 731h79l252 -804h-80z" />
    <glyph glyph-name="bracketright" unicode="]" horiz-adv-x="285" 
d="M184 -102h-198v70h119v693h-119v70h198v-833z" />
    <glyph glyph-name="asciicircum" unicode="^" horiz-adv-x="448" 
d="M21 245l176 341h61l176 -341h-88l-119 246l-117 -246h-89z" />
    <glyph glyph-name="underscore" unicode="_" horiz-adv-x="726" 
d="M55 -56h616v-68h-616v68z" />
    <glyph glyph-name="grave" unicode="`" horiz-adv-x="315" 
d="M57 860l235 -133l-23 -50l-245 113z" />
    <glyph glyph-name="a" unicode="a" horiz-adv-x="560" 
d="M397 310c0 43.333 -8.99805 74.333 -26.998 93s-44.167 28 -78.5 28s-62 -6.83301 -83 -20.5s-31.5 -35.167 -31.5 -64.5h-87c0 73.333 39.333 118.666 118 135.999c24 5.33301 50 8 78 8c59.333 0 105.666 -15 138.999 -45s50 -75.667 50 -137v-308h-68l-8 80
c-29.333 -60.667 -82.333 -91 -159 -91c-51.333 0 -92.5 14.333 -123.5 43s-46.5 64.334 -46.5 107.001s17.167 76 51.5 100s77.166 36 128.499 36s100.333 -8.66699 147 -26v61zM397.002 199c-47.333 13.333 -88.668 20 -124.001 20s-64 -6.33301 -86 -19
s-33 -32.667 -33 -60c0 -60 34 -90 102 -90c38.667 0 71.834 13.833 99.501 41.5s41.5 63.5 41.5 107.5z" />
    <glyph glyph-name="b" unicode="b" horiz-adv-x="584" 
d="M180 407c32 55.333 78.667 83 140 83s112.333 -22.833 153 -68.5s61 -106 61 -181s-20.667 -135.667 -62 -182s-91.666 -69.5 -150.999 -69.5c-32 0 -60.833 8 -86.5 24s-45.834 39.667 -60.501 71l-18 -84h-55v681h79v-274zM220 383.5
c-25.333 -24.333 -38.665 -58.168 -39.998 -101.501v-78c0 -44 13.167 -79.167 39.5 -105.5s58.166 -39.5 95.499 -39.5s69.666 16.5 96.999 49.5s41 76.833 41 131.5s-13.5 98.334 -40.5 131.001s-59.5 49 -97.5 49s-69.667 -12.167 -95 -36.5z" />
    <glyph glyph-name="c" unicode="c" horiz-adv-x="515" 
d="M395 446.5c33.333 -29 55 -65.168 65 -108.501l-80 -7c-8.66699 28 -22.667 49.833 -42 65.5s-40.666 23.5 -63.999 23.5c-42.667 0 -77.167 -16 -103.5 -48s-39.5 -75.5 -39.5 -130.5s12.833 -99.167 38.5 -132.5s57.667 -50 96 -50s67 8.83301 86 26.5
s28.5 42.834 28.5 75.501h81c0 -51.333 -17.833 -92.833 -53.5 -124.5s-82.167 -47.5 -139.5 -47.5c-60.667 0 -112.167 23 -154.5 69s-63.5 107.167 -63.5 183.5s21 136.833 63 181.5s91.167 67 147.5 67s101.166 -14.5 134.499 -43.5z" />
    <glyph glyph-name="d" unicode="d" horiz-adv-x="594" 
d="M414 407l-0.000976562 274h78v-681h-64l-10 80c-15.333 -30 -35.666 -52.667 -60.999 -68s-53 -23 -83 -23c-60.667 0 -111.5 23.333 -152.5 70s-61.5 107.5 -61.5 182.5s20.167 135.167 60.5 180.5s91.333 68 153 68s108.5 -27.667 140.5 -83zM180.499 371
c-26.333 -32.667 -39.498 -76.333 -39.498 -131s13.333 -98.5 40 -131.5s58.667 -49.5 96 -49.5s69.166 12.5 95.499 37.5s40.166 58.5 41.499 100.5v78c0 44.667 -13 80 -39 106s-58.333 39 -97 39s-71.167 -16.333 -97.5 -49z" />
    <glyph glyph-name="e" unicode="e" horiz-adv-x="515" 
d="M266 53c66 0 103.667 29 113 87h81c-7.33301 -48 -28.5 -85.167 -63.5 -111.5s-78.5 -39.5 -130.5 -39.5c-64 0 -116 22.833 -156 68.5s-60 106.5 -60 182.5s20.167 136.667 60.5 182s94 68 161 68s117 -26 150 -78s44.5 -115.333 34.5 -190h-327
c0 -49.333 12 -89.833 36 -121.5s57.667 -47.5 101 -47.5zM324 415c-15.333 8 -33.999 12 -55.999 12c-40.667 0 -72.834 -13.833 -96.501 -41.5s-37.5 -62.167 -41.5 -103.5h255c0 66.667 -20.333 111 -61 133z" />
    <glyph glyph-name="f" unicode="f" horiz-adv-x="343" 
d="M333 614c-22 8.66699 -39.334 13.001 -52.001 13.001c-23.333 0 -41.666 -5.66699 -54.999 -17s-20 -31.333 -20 -60v-72h99v-54h-99v-424h-78v424h-79v54h79v73c0 47.333 13 82.166 39 104.499s56 33.5 90 33.5s64 -4.33301 90 -13z" />
    <glyph glyph-name="g" unicode="g" horiz-adv-x="565" 
d="M121 15c-40 19.333 -60.001 49.002 -60.001 89.002c0 20.667 7.83301 38.834 23.5 54.501s35.167 26.167 58.5 31.5c-36 32 -54 74 -54 126s18.5 94 55.5 126s80.833 48 131.5 48s93.667 -12 129 -36c4.66699 35.333 18.834 63.666 42.501 84.999s54.834 32 93.501 32
l-7 -78c-58.667 0 -89.334 -24.667 -92.001 -74c23.333 -28.667 35 -63 35 -103c0 -51.333 -18.5 -93.5 -55.5 -126.5s-83.167 -49.5 -138.5 -49.5c-38 0 -71.667 7.66699 -101 23c-13.333 -2.66699 -25.333 -8.83398 -36 -18.501s-16 -22.834 -16 -39.501
c0 -35.333 29.333 -53 88 -53h186c44.667 0 80 -9.5 106 -28.5s39 -45.5 39 -79.5c0 -50.667 -25.5 -95 -76.5 -133s-115.5 -57 -193.5 -57s-139.333 14.5 -184 43.5s-67 65.5 -67 109.5c0 28.667 8.5 52 25.5 70s39.5 30.667 67.5 38zM105.999 -89.998
c0 -25.333 13.833 -47.167 41.5 -65.5s69.667 -27.5 126 -27.5s103.333 12.167 141 36.5s56.5 52.833 56.5 85.5c0 15.333 -5.5 28.5 -16.5 39.5s-27.833 16.5 -50.5 16.5h-193c-34 -1.33301 -60 -9.5 -78 -24.5s-27 -35.167 -27 -60.5zM368.999 400.501
c-20.667 21.667 -49.167 32.501 -85.5 32.501s-64.833 -10.833 -85.5 -32.5s-31 -49.834 -31 -84.501s10.5 -63.167 31.5 -85.5s49.5 -33.5 85.5 -33.5s64.333 11.333 85 34s31 51.167 31 85.5s-10.333 62.333 -31 84z" />
    <glyph glyph-name="h" unicode="h" horiz-adv-x="604" 
d="M180 390c32 66.667 85.001 100 159.001 100c56.667 0 100.834 -18.667 132.501 -56s47.5 -88.333 47.5 -153v-281h-78v281c0 46 -10.833 80.667 -32.5 104s-52.834 35 -93.501 35s-73.334 -17.167 -98.001 -51.5s-37 -81.833 -37 -142.5v-226h-79v681h79v-291z" />
    <glyph glyph-name="i" unicode="i" horiz-adv-x="299" 
d="M106 479h79v-479h-79v479zM107.5 604.5c-9 9 -13.5 21 -13.5 36s4.5 27 13.5 36s21.5 13.5 37.5 13.5s28.833 -4.5 38.5 -13.5s14.5 -21 14.5 -36s-4.83301 -27 -14.5 -36s-22.5 -13.5 -38.5 -13.5s-28.5 4.5 -37.5 13.5z" />
    <glyph glyph-name="j" unicode="j" horiz-adv-x="314" 
d="M122.5 604.5c-9 9 -13.5 21 -13.5 36s4.5 27 13.5 36s21.5 13.5 37.5 13.5s28.833 -4.5 38.5 -13.5s14.5 -21 14.5 -36s-4.83301 -27 -14.5 -36s-22.5 -13.5 -38.5 -13.5s-28.5 4.5 -37.5 13.5zM33 -177c58.667 0 88.001 36.666 88.001 109.999v547h79v-547
c0 -91.333 -30 -147.666 -90 -168.999c-18.667 -6.66699 -39.334 -10 -62.001 -10c-41.333 0 -86 12.333 -134 37l4 69c42 -24.667 80.333 -37 115 -37z" />
    <glyph glyph-name="k" unicode="k" horiz-adv-x="564" 
d="M244 253l-64 -52v-201h-79v681h79v-396l231 193h110l-220 -179l231 -299h-97z" />
    <glyph glyph-name="l" unicode="l" 
d="M101 681h79v-681h-79v681z" />
    <glyph glyph-name="m" unicode="m" horiz-adv-x="935" 
d="M177 386c31.333 69.333 85.002 104 161.002 104c41.333 0 76 -10.167 104 -30.5s48.333 -48.5 61 -84.5c30 76.667 85.667 115 167 115c57.333 0 101.666 -18.667 132.999 -56s47 -88.333 47 -153v-281h-78v281c0 46 -10.833 80.667 -32.5 104s-52.834 35 -93.501 35
s-72.167 -16.667 -94.5 -50s-33.5 -79.333 -33.5 -138v-232h-78v281c0 46 -10.833 80.667 -32.5 104s-52.5 35 -92.5 35s-72.333 -16.333 -97 -49s-37.667 -78 -39 -136v-235h-79v478h68z" />
    <glyph glyph-name="n" unicode="n" horiz-adv-x="603" 
d="M177 386c31.333 69.333 84.999 104 160.999 104c56.667 0 100.834 -18.667 132.501 -56s47.5 -88.333 47.5 -153v-281h-78v281c0 46 -10.833 80.667 -32.5 104s-52.5 35 -92.5 35s-72.333 -16.333 -97 -49s-37.667 -78 -39 -136v-235h-79v478h68z" />
    <glyph glyph-name="o" unicode="o" horiz-adv-x="546" 
d="M273 490c66.667 0 120.5 -21.667 161.5 -65s61.5 -105.333 61.5 -186c0 -80 -20.5 -141.667 -61.5 -185s-94.833 -65 -161.5 -65s-120.5 21.667 -161.5 65s-61.5 105 -61.5 185c0 80.667 20.5 142.667 61.5 186s94.833 65 161.5 65zM380 373.5
c-24 32.333 -59.165 48.5 -105.498 48.5s-81.833 -16.167 -106.5 -48.5s-37 -77 -37 -134s11.667 -101.667 35 -134s58.166 -48.5 104.499 -48.5s82.166 16.167 107.499 48.5s38 77 38 134s-12 101.667 -36 134z" />
    <glyph glyph-name="p" unicode="p" horiz-adv-x="594" 
d="M175 405c31.333 56.667 78.166 85 140.499 85s114.333 -23 156 -69s62.5 -106.667 62.5 -182s-21 -135.833 -63 -181.5s-93.667 -68.5 -155 -68.5s-106.666 23 -135.999 69v-293h-79v713h65zM410.5 107c28.333 32 42.5029 75.8311 42.5029 131.498
s-13.5 99.834 -40.5 132.501s-59.833 49 -98.5 49s-70.334 -12.167 -95.001 -36.5s-37.667 -57.166 -39 -98.499v-91c0 -42 12.667 -75 38 -99s56.666 -36 93.999 -36s70.166 16 98.499 48z" />
    <glyph glyph-name="q" unicode="q" horiz-adv-x="585" 
d="M264 490c68 0 117.33 -30 147.997 -90l17 78h54v-559c0 -32.667 3.83301 -54.5 11.5 -65.5s16.334 -19 26.001 -24s21.5 -9.83301 35.5 -14.5l-26 -61c-45.333 12 -77.5 31 -96.5 57s-28.5 63.667 -28.5 113v152c-27.333 -58 -72.166 -87 -134.499 -87
s-114.5 22.833 -156.5 68.5s-63 106.167 -63 181.5s20.833 136 62.5 182s91.834 69 150.501 69zM172.497 371c-27 -32.667 -40.5 -76.832 -40.5 -132.499s14.333 -99.5 43 -131.5s62 -48 100 -48c54.667 0 93.667 24.333 117 73c8 15.333 12.333 33.666 13 54.999v91
c0 44 -12.667 78.667 -38 104s-57.333 38 -96 38s-71.5 -16.333 -98.5 -49z" />
    <glyph glyph-name="r" unicode="r" horiz-adv-x="381" 
d="M296 411c-75.333 0 -114.332 -59.333 -116.999 -178v-233h-79v479h79v-92c24 66.667 66.333 100 127 100c19.333 0 37.666 -3 54.999 -9l-4 -77c-20 6.66699 -40.333 10 -61 10z" />
    <glyph glyph-name="s" unicode="s" horiz-adv-x="526" 
d="M126.5 455c33.667 23.333 79.167 35.0029 136.5 35.0029s102.166 -12 134.499 -36s49.166 -54.333 50.499 -91h-77c-6 43.333 -42.667 65 -110 65c-32.667 0 -57.834 -7.33301 -75.501 -22s-26.5 -30.5 -26.5 -47.5s6.66699 -31.333 20 -43
s34.666 -21.834 63.999 -30.501l96 -32c40.667 -12.667 71.834 -28.834 93.501 -48.501s32.5 -46.667 32.5 -81s-17.667 -65.333 -53 -93s-84.666 -41.5 -147.999 -41.5s-112.666 14.167 -147.999 42.5s-54 64.833 -56 109.5h76c1.33301 -30 13.5 -52.5 36.5 -67.5
s51.833 -22.5 86.5 -22.5s63.334 7.33301 86.001 22s34 32.167 34 52.5s-6.66699 35.833 -20 46.5s-35 20 -65 28l-93 31c-83.333 24.667 -125 68 -125 130c0 39.333 16.833 70.666 50.5 93.999z" />
    <glyph glyph-name="t" unicode="t" horiz-adv-x="376" 
d="M351 14c-57.333 -26.667 -109.668 -32.333 -157.001 -17c-34 10.667 -58 33 -72 67c-7.33301 16.667 -11 36.667 -11 60v294h-77v60h77v133h78v-133h150v-60h-150v-293c0 -48.667 22.667 -73 68 -73c24.667 0 52.334 6 83.001 18z" />
    <glyph glyph-name="u" unicode="u" horiz-adv-x="606" 
d="M426 95c-32.667 -69.333 -85.667 -104 -159 -104c-54 0 -97.5 15 -130.5 45s-49.5 76.333 -49.5 139v304h79v-298c0 -80.667 37.333 -121 112 -121c43.333 0 78.5 16.667 105.5 50s41.167 76 42.5 128v241h79v-479h-79v95z" />
    <glyph glyph-name="v" unicode="v" horiz-adv-x="503" 
d="M107 478l144 -395l145 395h89l-190 -478h-87l-190 478h89z" />
    <glyph glyph-name="w" unicode="w" horiz-adv-x="725" 
d="M100 478l116 -381l114 358h66l113 -362l117 385h78l-156 -478h-77l-110 335l-108 -335h-76l-159 478h82z" />
    <glyph glyph-name="x" unicode="x" horiz-adv-x="512" 
d="M485 0h-96l-137 181l-130 -181h-96l181 239l-181 240h96l137 -180l131 180h96l-183 -240z" />
    <glyph glyph-name="y" unicode="y" horiz-adv-x="484" 
d="M5 -139c32.667 -25.333 66.999 -37.999 102.999 -37.999c26.667 0 49.667 13.333 69 40c14 19.333 26.667 48.666 38 87.999l14 49l-196 478h88l145 -381l113 381h80l-179 -573c-15.333 -48.667 -35.5 -86 -60.5 -112s-56.667 -39 -95 -39s-78.166 11.667 -119.499 35v72
z" />
    <glyph glyph-name="z" unicode="z" horiz-adv-x="475" 
d="M53 64l281 350h-281v64h370v-64l-277 -350h277v-64h-370v64z" />
    <glyph glyph-name="braceleft" unicode="{" horiz-adv-x="349" 
d="M154 303c34.667 -16.667 52 -54.333 52 -113v-93c0 -54 10.167 -95.167 30.5 -123.5s55.166 -42.5 104.499 -42.5v-69c-142 0 -213 78 -213 234v92c0 28.667 -2.83301 49 -8.5 61s-14.834 18 -27.501 18h-17v76h17c12.667 0 21.834 5.83301 27.501 17.5
s8.5 32.167 8.5 61.5v91c0 112 38 184.333 114 217c26.667 12 59.667 18 99 18v-69c-49.333 0 -84.166 -14.167 -104.499 -42.5s-30.5 -69.833 -30.5 -124.5v-92c0 -57.333 -17.333 -95 -52 -113v-4z" />
    <glyph glyph-name="bar" unicode="|" 
d="M101 750h79v-872h-79v872z" />
    <glyph glyph-name="braceright" unicode="}" horiz-adv-x="349" 
d="M195 307c-34.667 18 -52 55.666 -52 112.999v92c0 54.667 -10.167 96.167 -30.5 124.5s-55.166 42.5 -104.499 42.5v69c142 0 213 -78.333 213 -235v-91c0 -29.333 2.83301 -49.833 8.5 -61.5s14.834 -17.5 27.501 -17.5h17v-76h-17c-12.667 0 -21.834 -6 -27.501 -18
s-8.5 -32.333 -8.5 -61v-92c0 -112 -38 -184 -114 -216c-27.333 -12 -60.333 -18 -99 -18v69c49.333 0 84.166 14.167 104.499 42.5s30.5 69.5 30.5 123.5v93c0 58.667 17.333 96.334 52 113.001v4z" />
    <glyph glyph-name="asciitilde" unicode="~" horiz-adv-x="515" 
d="M158 282c-24.667 0 -45.002 -19.667 -61.002 -59l-44 23c22 74 57.667 111 107 111c22.667 0 56.334 -9.16699 101.001 -27.5s75.667 -27.5 93 -27.5c26.667 0 48.334 19 65.001 57l43 -27c-23.333 -70.667 -61 -106 -113 -106c-15.333 0 -39 6 -71 18s-52.667 20 -62 24
c-26 9.33301 -45.333 14 -58 14z" />
    <glyph glyph-name="sterling" unicode="&#xa3;" horiz-adv-x="565" 
d="M400 490c-10.667 52 -44.667 77.9971 -102 77.9971c-28 0 -51.5 -10.667 -70.5 -32s-28.5 -56 -28.5 -104v-109h182v-56h-182v-104c0 -45.333 -12.333 -76.666 -37 -93.999h183c32.667 0 56.5 6.83301 71.5 20.5s24.5 35.167 28.5 64.5h84
c-4 -51.333 -20 -89.833 -48 -115.5s-73.333 -38.5 -136 -38.5h-325v69h28c25.333 0 43.833 7.33301 55.5 22s17.5 37.334 17.5 68.001v108h-91v56h91v109c0 66 15.5 117.167 46.5 153.5s76.833 54.5 137.5 54.5c47.333 0 86 -12.667 116 -38s48.667 -62.666 56 -111.999
h-77z" />
    <glyph glyph-name="dieresis" unicode="&#xa8;" horiz-adv-x="323" 
d="M38.5 793.5c-9.66699 9.66699 -14.5 21.5 -14.5 35.5s4.83301 25.833 14.5 35.5s22.167 14.5 37.5 14.5s28.166 -4.83301 38.499 -14.5s15.5 -21.5 15.5 -35.5s-5.16699 -25.833 -15.5 -35.5s-23.166 -14.5 -38.499 -14.5s-27.833 4.83301 -37.5 14.5zM207 793.5
c-10 9.66699 -15 21.5 -15 35.5s5 25.833 15 35.5s22.5 14.5 37.5 14.5s27.667 -4.83301 38 -14.5s15.5 -21.5 15.5 -35.5s-5.16699 -25.833 -15.5 -35.5s-23 -14.5 -38 -14.5s-27.5 4.83301 -37.5 14.5z" />
    <glyph glyph-name="acute" unicode="&#xb4;" horiz-adv-x="315" 
d="M290 790l-244 -113l-23 50l235 133z" />
    <glyph glyph-name="Agrave" unicode="&#xc0;" horiz-adv-x="575" 
d="M242 629h96l211 -629h-82l-54 160h-250l-54 -160h-83zM184 222h209l-104 310zM190 860l235 -133l-23 -50l-245 113z" />
    <glyph glyph-name="Aacute" unicode="&#xc1;" horiz-adv-x="575" 
d="M242 629h96l211 -629h-82l-54 160h-250l-54 -160h-83zM184 222h209l-104 310zM423 790l-244 -113l-23 50l235 133z" />
    <glyph glyph-name="Acircumflex" unicode="&#xc2;" horiz-adv-x="575" 
d="M242 629h96l211 -629h-82l-54 160h-250l-54 -160h-83zM184 222h209l-104 310zM469 716l-50 -39l-129 108l-130 -108l-50 39l180 156z" />
    <glyph glyph-name="Atilde" unicode="&#xc3;" horiz-adv-x="575" 
d="M242 629h96l211 -629h-82l-54 160h-250l-54 -160h-83zM184 222h209l-104 310zM221 770c-21.333 0 -40.333 -17 -57 -51l-32 19c8 34 19.667 59.833 35 77.5s31.666 26.5 48.999 26.5s37.333 -5.66699 60 -17c30.667 -15.333 50.5 -25 59.5 -29s17.833 -6 26.5 -6
s17.667 4.16699 27 12.5s17.333 21.5 24 39.5l35 -23c-7.33301 -32 -19.166 -56.667 -35.499 -74s-31.333 -26 -45 -26s-26.167 2 -37.5 6s-27 11.167 -47 21.5s-33.5 16.833 -40.5 19.5s-14.167 4 -21.5 4z" />
    <glyph glyph-name="Adieresis" unicode="&#xc4;" horiz-adv-x="575" 
d="M242 629h96l211 -629h-82l-54 160h-250l-54 -160h-83zM184 222h209l-104 310zM188.5 749.5c-9.66699 9.66699 -14.5 21.5 -14.5 35.5s4.83301 25.833 14.5 35.5s22.167 14.5 37.5 14.5s28.166 -4.83301 38.499 -14.5s15.5 -21.5 15.5 -35.5s-5.16699 -25.833 -15.5 -35.5
s-23.166 -14.5 -38.499 -14.5s-27.833 4.83301 -37.5 14.5zM357 749.5c-10 9.66699 -15 21.5 -15 35.5s5 25.833 15 35.5s22.5 14.5 37.5 14.5s27.667 -4.83301 38 -14.5s15.5 -21.5 15.5 -35.5s-5.16699 -25.833 -15.5 -35.5s-23 -14.5 -38 -14.5s-27.5 4.83301 -37.5 14.5
z" />
    <glyph glyph-name="Egrave" unicode="&#xc8;" horiz-adv-x="564" 
d="M100 629h387v-68h-308v-211h290v-67h-290v-214h308v-69h-387v629zM194 860l235 -133l-23 -50l-245 113z" />
    <glyph glyph-name="Eacute" unicode="&#xc9;" horiz-adv-x="564" 
d="M100 0h387v69h-308v214h290v67h-290v211h308v68h-387v-629zM427 790l-244 -113l-23 50l235 133z" />
    <glyph glyph-name="Ecircumflex" unicode="&#xca;" horiz-adv-x="564" 
d="M105 629h387v-68h-308v-211h290v-67h-290v-214h308v-69h-387v629zM479 716l-50 -39l-129 108l-130 -108l-50 39l180 156z" />
    <glyph glyph-name="Edieresis" unicode="&#xcb;" horiz-adv-x="564" 
d="M100 629h387v-68h-308v-211h290v-67h-290v-214h308v-69h-387v629zM172.5 749.5c-9.66699 9.66699 -14.5 21.5 -14.5 35.5s4.83301 25.833 14.5 35.5s22.167 14.5 37.5 14.5s28.166 -4.83301 38.499 -14.5s15.5 -21.5 15.5 -35.5s-5.16699 -25.833 -15.5 -35.5
s-23.166 -14.5 -38.499 -14.5s-27.833 4.83301 -37.5 14.5zM341 749.5c-10 9.66699 -15 21.5 -15 35.5s5 25.833 15 35.5s22.5 14.5 37.5 14.5s27.667 -4.83301 38 -14.5s15.5 -21.5 15.5 -35.5s-5.16699 -25.833 -15.5 -35.5s-23 -14.5 -38 -14.5s-27.5 4.83301 -37.5 14.5
z" />
    <glyph glyph-name="Igrave" unicode="&#xcc;" 
d="M101 629h79v-629h-79v629zM40 860l235 -133l-23 -50l-245 113z" />
    <glyph glyph-name="Iacute" unicode="&#xcd;" 
d="M101 0h79v629h-79v-629zM273 790l-244 -113l-23 50l235 133z" />
    <glyph glyph-name="Icircumflex" unicode="&#xce;" 
d="M101 629h79v-629h-79v629zM320 716l-50 -39l-129 108l-130 -108l-50 39l180 156z" />
    <glyph glyph-name="Idieresis" unicode="&#xcf;" 
d="M101 629h79v-629h-79v629zM18.5 749.5c-9.66699 9.66699 -14.5 21.5 -14.5 35.5s4.83301 25.833 14.5 35.5s22.167 14.5 37.5 14.5s28.166 -4.83301 38.499 -14.5s15.5 -21.5 15.5 -35.5s-5.16699 -25.833 -15.5 -35.5s-23.166 -14.5 -38.499 -14.5
s-27.833 4.83301 -37.5 14.5zM187 749.5c-10 9.66699 -15 21.5 -15 35.5s5 25.833 15 35.5s22.5 14.5 37.5 14.5s27.667 -4.83301 38 -14.5s15.5 -21.5 15.5 -35.5s-5.16699 -25.833 -15.5 -35.5s-23 -14.5 -38 -14.5s-27.5 4.83301 -37.5 14.5z" />
    <glyph glyph-name="Ntilde" unicode="&#xd1;" horiz-adv-x="686" 
d="M99 629v-629h80v512l317 -512h88v629h-79v-505l-312 505h-94zM274 770c-21.333 0 -40.333 -17 -57 -51l-32 19c8 34 19.667 59.833 35 77.5s31.666 26.5 48.999 26.5s37 -5.66699 59 -17c31.333 -15.333 51.5 -25 60.5 -29s17.833 -6 26.5 -6s17.667 4.16699 27 12.5
s17.333 21.5 24 39.5l35 -23c-7.33301 -32 -19.166 -56.667 -35.499 -74s-31.333 -26 -45 -26s-26.167 2 -37.5 6s-27 11.167 -47 21.5s-33.5 16.833 -40.5 19.5s-14.167 4 -21.5 4z" />
    <glyph glyph-name="Ograve" unicode="&#xd2;" horiz-adv-x="646" 
d="M323 640c81.333 0 147.167 -27.833 197.5 -83.5s75.5 -136.667 75.5 -243s-25 -187 -75 -242s-116 -82.5 -198 -82.5s-147.833 27.833 -197.5 83.5s-74.5 136.167 -74.5 241.5c0 106 24.833 186.833 74.5 242.5s115.5 83.5 197.5 83.5zM323.001 569
c-58.667 0 -105 -22 -139 -66s-51 -107.333 -51 -190s17 -145.334 51 -188.001s80.333 -64 139 -64s105.167 21.333 139.5 64s51.5 105.334 51.5 188.001s-17.167 146 -51.5 190s-80.833 66 -139.5 66zM223.001 860l235 -133l-23 -50l-245 113z" />
    <glyph glyph-name="Oacute" unicode="&#xd3;" horiz-adv-x="646" 
d="M323 640c-82 0 -147.834 -27.833 -197.501 -83.5s-74.5 -136.5 -74.5 -242.5c0 -105.333 24.833 -185.833 74.5 -241.5s115.5 -83.5 197.5 -83.5s148 27.5 198 82.5s75 135.667 75 242s-25.167 187.333 -75.5 243s-116.166 83.5 -197.499 83.5zM322.999 569
c58.667 0 105.167 -22 139.5 -66s51.5 -107.333 51.5 -190s-17.167 -145.334 -51.5 -188.001s-80.833 -64 -139.5 -64s-105 21.333 -139 64s-51 105.334 -51 188.001s17 146 51 190s80.333 66 139 66zM455.999 790l-244 -113l-23 50l235 133z" />
    <glyph glyph-name="Ocircumflex" unicode="&#xd4;" horiz-adv-x="646" 
d="M323 640c81.333 0 147.167 -27.833 197.5 -83.5s75.5 -136.667 75.5 -243s-25 -187 -75 -242s-116 -82.5 -198 -82.5s-147.833 27.833 -197.5 83.5s-74.5 136.167 -74.5 241.5c0 106 24.833 186.833 74.5 242.5s115.5 83.5 197.5 83.5zM323.001 569
c-58.667 0 -105 -22 -139 -66s-51 -107.333 -51 -190s17 -145.334 51 -188.001s80.333 -64 139 -64s105.167 21.333 139.5 64s51.5 105.334 51.5 188.001s-17.167 146 -51.5 190s-80.833 66 -139.5 66zM502.001 716l-50 -39l-129 108l-130 -108l-50 39l180 156z" />
    <glyph glyph-name="Otilde" unicode="&#xd5;" horiz-adv-x="646" 
d="M323 640c-82 0 -147.834 -27.833 -197.501 -83.5s-74.5 -136.5 -74.5 -242.5c0 -105.333 24.833 -185.833 74.5 -241.5s115.5 -83.5 197.5 -83.5s148 27.5 198 82.5s75 135.667 75 242s-25.167 187.333 -75.5 243s-116.166 83.5 -197.499 83.5zM322.999 569
c58.667 0 105.167 -22 139.5 -66s51.5 -107.333 51.5 -190s-17.167 -145.334 -51.5 -188.001s-80.833 -64 -139.5 -64s-105 21.333 -139 64s-51 105.334 -51 188.001s17 146 51 190s80.333 66 139 66zM253.999 770c-21.333 0 -40.333 -17 -57 -51l-32 19
c8 34 19.667 59.833 35 77.5s31.666 26.5 48.999 26.5s37 -5.66699 59 -17c31.333 -15.333 51.5 -25 60.5 -29s17.833 -6 26.5 -6s17.667 4.16699 27 12.5s17.333 21.5 24 39.5l35 -23c-7.33301 -32 -19.166 -56.667 -35.499 -74s-31.333 -26 -45 -26s-26.167 2 -37.5 6
s-27 11.167 -47 21.5s-33.5 16.833 -40.5 19.5s-14.167 4 -21.5 4z" />
    <glyph glyph-name="Odieresis" unicode="&#xd6;" horiz-adv-x="646" 
d="M323 640c81.333 0 147.167 -27.833 197.5 -83.5s75.5 -136.667 75.5 -243s-25 -187 -75 -242s-116 -82.5 -198 -82.5s-147.833 27.833 -197.5 83.5s-74.5 136.167 -74.5 241.5c0 106 24.833 186.833 74.5 242.5s115.5 83.5 197.5 83.5zM323.001 569
c-58.667 0 -105 -22 -139 -66s-51 -107.333 -51 -190s17 -145.334 51 -188.001s80.333 -64 139 -64s105.167 21.333 139.5 64s51.5 105.334 51.5 188.001s-17.167 146 -51.5 190s-80.833 66 -139.5 66zM200.501 749.5c-9.66699 9.66699 -14.5 21.5 -14.5 35.5
s4.83301 25.833 14.5 35.5s22.167 14.5 37.5 14.5s28.166 -4.83301 38.499 -14.5s15.5 -21.5 15.5 -35.5s-5.16699 -25.833 -15.5 -35.5s-23.166 -14.5 -38.499 -14.5s-27.833 4.83301 -37.5 14.5zM369.001 749.5c-10 9.66699 -15 21.5 -15 35.5s5 25.833 15 35.5
s22.5 14.5 37.5 14.5s27.667 -4.83301 38 -14.5s15.5 -21.5 15.5 -35.5s-5.16699 -25.833 -15.5 -35.5s-23 -14.5 -38 -14.5s-27.5 4.83301 -37.5 14.5z" />
    <glyph glyph-name="Ugrave" unicode="&#xd9;" horiz-adv-x="654" 
d="M166 629v-402c0 -58.667 14.667 -101 44 -127s68 -39 116 -39s86.667 13 116 39s44 68.333 44 127v402h79v-402c0 -78.667 -21.667 -138 -65 -178s-101.5 -60 -174.5 -60s-131 20 -174 60s-64.5 99.333 -64.5 178v402h79zM226 860l235 -133l-23 -50l-245 113z" />
    <glyph glyph-name="Uacute" unicode="&#xda;" horiz-adv-x="654" 
d="M87 629v-402c0 -78.667 21.5 -138 64.5 -178s101 -60 174 -60s131.167 20 174.5 60s65 99.333 65 178v402h-79v-402c0 -58.667 -14.667 -101 -44 -127s-68 -39 -116 -39s-86.667 13 -116 39s-44 68.333 -44 127v402h-79zM459 790l-244 -113l-23 50l235 133z" />
    <glyph glyph-name="Ucircumflex" unicode="&#xdb;" horiz-adv-x="654" 
d="M166 629v-402c0 -58.667 14.667 -101 44 -127s68 -39 116 -39s86.667 13 116 39s44 68.333 44 127v402h79v-402c0 -78.667 -21.667 -138 -65 -178s-101.5 -60 -174.5 -60s-131 20 -174 60s-64.5 99.333 -64.5 178v402h79zM505 716l-50 -39l-129 108l-130 -108l-50 39
l180 156z" />
    <glyph glyph-name="Udieresis" unicode="&#xdc;" horiz-adv-x="654" 
d="M166 629v-402c0 -58.667 14.667 -101 44 -127s68 -39 116 -39s86.667 13 116 39s44 68.333 44 127v402h79v-402c0 -78.667 -21.667 -138 -65 -178s-101.5 -60 -174.5 -60s-131 20 -174 60s-64.5 99.333 -64.5 178v402h79zM203.5 749.5
c-9.66699 9.66699 -14.5 21.5 -14.5 35.5s4.83301 25.833 14.5 35.5s22.167 14.5 37.5 14.5s28.166 -4.83301 38.499 -14.5s15.5 -21.5 15.5 -35.5s-5.16699 -25.833 -15.5 -35.5s-23.166 -14.5 -38.499 -14.5s-27.833 4.83301 -37.5 14.5zM372 749.5
c-10 9.66699 -15 21.5 -15 35.5s5 25.833 15 35.5s22.5 14.5 37.5 14.5s27.667 -4.83301 38 -14.5s15.5 -21.5 15.5 -35.5s-5.16699 -25.833 -15.5 -35.5s-23 -14.5 -38 -14.5s-27.5 4.83301 -37.5 14.5z" />
    <glyph glyph-name="agrave" unicode="&#xe0;" horiz-adv-x="551" 
d="M387 310c0 43.333 -8.99805 74.333 -26.998 93s-44.167 28 -78.5 28s-62 -6.83301 -83 -20.5s-31.5 -35.167 -31.5 -64.5h-87c0 73.333 39.333 118.666 118 135.999c24 5.33301 50 8 78 8c59.333 0 105.666 -15 138.999 -45s50 -75.667 50 -137v-308h-68l-8 80
c-29.333 -60.667 -82.333 -91 -159 -91c-51.333 0 -92.5 14.333 -123.5 43s-46.5 64.334 -46.5 107.001s17.167 76 51.5 100s77.166 36 128.499 36s100.333 -8.66699 147 -26v61zM387.002 199c-47.333 13.333 -88.668 20 -124.001 20s-64 -6.33301 -86 -19
s-33 -32.667 -33 -60c0 -60 34 -90 102 -90c38.667 0 71.834 13.833 99.501 41.5s41.5 63.5 41.5 107.5zM182 731l235 -133l-23 -50l-245 113z" />
    <glyph glyph-name="aacute" unicode="&#xe1;" horiz-adv-x="551" 
d="M387 310c0 43.333 -8.99805 74.333 -26.998 93s-44.167 28 -78.5 28s-62 -6.83301 -83 -20.5s-31.5 -35.167 -31.5 -64.5h-87c0 73.333 39.333 118.666 118 135.999c24 5.33301 50 8 78 8c59.333 0 105.666 -15 138.999 -45s50 -75.667 50 -137v-308h-68l-8 80
c-29.333 -60.667 -82.333 -91 -159 -91c-51.333 0 -92.5 14.333 -123.5 43s-46.5 64.334 -46.5 107.001s17.167 76 51.5 100s77.166 36 128.499 36s100.333 -8.66699 147 -26v61zM387.002 199c-47.333 13.333 -88.666 20 -123.999 20s-64 -6.33301 -86 -19
s-33 -32.667 -33 -60c0 -60 34 -90 102 -90c38 0 70.667 13.333 98 40s41.666 61 42.999 103v6zM415.002 661l-244 -113l-23 50l235 133z" />
    <glyph glyph-name="acircumflex" unicode="&#xe2;" horiz-adv-x="551" 
d="M387 310c0 43.333 -8.99805 74.333 -26.998 93s-44.167 28 -78.5 28s-62 -6.83301 -83 -20.5s-31.5 -35.167 -31.5 -64.5h-87c0 73.333 39.333 118.666 118 135.999c24 5.33301 50 8 78 8c59.333 0 105.666 -15 138.999 -45s50 -75.667 50 -137v-308h-68l-8 80
c-29.333 -60.667 -82.333 -91 -159 -91c-51.333 0 -92.5 14.333 -123.5 43s-46.5 64.334 -46.5 107.001s17.167 76 51.5 100s77.166 36 128.499 36s100.333 -8.66699 147 -26v61zM387.002 199c-47.333 13.333 -88.668 20 -124.001 20s-64 -6.33301 -86 -19
s-33 -32.667 -33 -60c0 -60 34 -90 102 -90c38.667 0 71.834 13.833 99.501 41.5s41.5 63.5 41.5 107.5zM461 587l-50 -39l-129 108l-130 -108l-50 39l180 156z" />
    <glyph glyph-name="atilde" unicode="&#xe3;" horiz-adv-x="551" 
d="M387 310c0 43.333 -8.99805 74.333 -26.998 93s-44.167 28 -78.5 28s-62 -6.83301 -83 -20.5s-31.5 -35.167 -31.5 -64.5h-87c0 73.333 39.333 118.666 118 135.999c24 5.33301 50 8 78 8c59.333 0 105.666 -15 138.999 -45s50 -75.667 50 -137v-308h-68l-8 80
c-29.333 -60.667 -82.333 -91 -159 -91c-51.333 0 -92.5 14.333 -123.5 43s-46.5 64.334 -46.5 107.001s17.167 76 51.5 100s77.166 36 128.499 36s100.333 -8.66699 147 -26v61zM387.002 199c-47.333 13.333 -88.666 20 -123.999 20s-64 -6.33301 -86 -19
s-33 -32.667 -33 -60c0 -60 34 -90 102 -90c38 0 70.667 13.333 98 40s41.666 61 42.999 103v6zM213.002 641c-21.333 0 -40.333 -17 -57 -51l-32 19c8 34 19.667 59.833 35 77.5s31.666 26.5 48.999 26.5s37.333 -5.66699 60 -17c30.667 -15.333 50.5 -25 59.5 -29
s17.833 -6 26.5 -6s17.667 4.16699 27 12.5s17.333 21.5 24 39.5l35 -23c-7.33301 -32 -19.166 -56.667 -35.499 -74s-31.333 -26 -45 -26s-26.167 2 -37.5 6s-27 11.167 -47 21.5s-33.5 16.833 -40.5 19.5s-14.167 4 -21.5 4z" />
    <glyph glyph-name="adieresis" unicode="&#xe4;" horiz-adv-x="551" 
d="M387 310c0 43.333 -8.99805 74.333 -26.998 93s-44.167 28 -78.5 28s-62 -6.83301 -83 -20.5s-31.5 -35.167 -31.5 -64.5h-87c0 73.333 39.333 118.666 118 135.999c24 5.33301 50 8 78 8c59.333 0 105.666 -15 138.999 -45s50 -75.667 50 -137v-308h-68l-8 80
c-29.333 -60.667 -82.333 -91 -159 -91c-51.333 0 -92.5 14.333 -123.5 43s-46.5 64.334 -46.5 107.001s17.167 76 51.5 100s77.166 36 128.499 36s100.333 -8.66699 147 -26v61zM387.002 199c-47.333 13.333 -88.668 20 -124.001 20s-64 -6.33301 -86 -19
s-33 -32.667 -33 -60c0 -60 34 -90 102 -90c38.667 0 71.834 13.833 99.501 41.5s41.5 63.5 41.5 107.5zM159.5 619.5c-9.66699 9.66699 -14.5 21.5 -14.5 35.5s4.83301 25.833 14.5 35.5s22.167 14.5 37.5 14.5s28.166 -4.83301 38.499 -14.5s15.5 -21.5 15.5 -35.5
s-5.16699 -25.833 -15.5 -35.5s-23.166 -14.5 -38.499 -14.5s-27.833 4.83301 -37.5 14.5zM328 619.5c-10 9.66699 -15 21.5 -15 35.5s5 25.833 15 35.5s22.5 14.5 37.5 14.5s27.667 -4.83301 38 -14.5s15.5 -21.5 15.5 -35.5s-5.16699 -25.833 -15.5 -35.5
s-23 -14.5 -38 -14.5s-27.5 4.83301 -37.5 14.5z" />
    <glyph glyph-name="egrave" unicode="&#xe8;" horiz-adv-x="514" 
d="M267 53c66 0 103.667 29 113 87h81c-7.33301 -48 -28.5 -85.167 -63.5 -111.5s-78.5 -39.5 -130.5 -39.5c-64 0 -116 22.833 -156 68.5s-60 106.5 -60 182.5s20.167 136.667 60.5 182s94 68 161 68s117 -26 150 -78s44.5 -115.333 34.5 -190h-327
c0 -49.333 12 -89.833 36 -121.5s57.667 -47.5 101 -47.5zM324 415c-14.667 8 -32.667 12 -54 12c-41.333 0 -73.833 -13.833 -97.5 -41.5s-37.5 -62.167 -41.5 -103.5h255c0 66.667 -20.667 111 -62 133zM159 736l235 -133l-23 -50l-245 113z" />
    <glyph glyph-name="eacute" unicode="&#xe9;" horiz-adv-x="514" 
d="M380 140c-9.33301 -58 -47 -87 -113 -87c-43.333 0 -77 15.833 -101 47.5s-36 72.167 -36 121.5h327c10 74.667 -1.5 138 -34.5 190s-83 78 -150 78s-120.667 -22.667 -161 -68s-60.5 -106 -60.5 -182s20 -136.833 60 -182.5s92 -68.5 156 -68.5
c52 0 95.5 13.167 130.5 39.5s56.167 63.5 63.5 111.5h-81zM358.5 385.5c18.333 -27.667 27.5 -62.167 27.5 -103.5h-255c4 41.333 17.833 75.833 41.5 103.5s56 41.5 97 41.5s70.667 -13.833 89 -41.5zM392 666l-244 -113l-23 50l235 133z" />
    <glyph glyph-name="ecircumflex" unicode="&#xea;" horiz-adv-x="514" 
d="M270 53c66 0 103.667 29 113 87h81c-7.33301 -48 -28.5 -85.167 -63.5 -111.5s-78.5 -39.5 -130.5 -39.5c-64 0 -116 22.833 -156 68.5s-60 106.5 -60 182.5s20.167 136.667 60.5 182s94 68 161 68s117 -26 150 -78s44.5 -115.333 34.5 -190h-327
c0 -49.333 12 -89.833 36 -121.5s57.667 -47.5 101 -47.5zM328 415c-15.333 8 -33.999 12 -55.999 12c-40.667 0 -72.834 -13.833 -96.501 -41.5s-37.5 -62.167 -41.5 -103.5h255c0 66.667 -20.333 111 -61 133zM442.001 592l-50 -39l-129 108l-130 -108l-50 39l180 156z
" />
    <glyph glyph-name="edieresis" unicode="&#xeb;" horiz-adv-x="514" 
d="M267 53c66 0 103.667 29 113 87h81c-7.33301 -48 -28.5 -85.167 -63.5 -111.5s-78.5 -39.5 -130.5 -39.5c-64 0 -116 22.833 -156 68.5s-60 106.5 -60 182.5s20.167 136.667 60.5 182s94 68 161 68s117 -26 150 -78s44.5 -115.333 34.5 -190h-327
c0 -49.333 12 -89.833 36 -121.5s57.667 -47.5 101 -47.5zM324 415c-14.667 8 -32.667 12 -54 12c-41.333 0 -73.833 -13.833 -97.5 -41.5s-37.5 -62.167 -41.5 -103.5h255c0 66.667 -20.667 111 -62 133zM137.5 619.5c-9.66699 9.66699 -14.5 21.5 -14.5 35.5
s4.83301 25.833 14.5 35.5s22.167 14.5 37.5 14.5s28.166 -4.83301 38.499 -14.5s15.5 -21.5 15.5 -35.5s-5.16699 -25.833 -15.5 -35.5s-23.166 -14.5 -38.499 -14.5s-27.833 4.83301 -37.5 14.5zM306 619.5c-10 9.66699 -15 21.5 -15 35.5s5 25.833 15 35.5
s22.5 14.5 37.5 14.5s27.667 -4.83301 38 -14.5s15.5 -21.5 15.5 -35.5s-5.16699 -25.833 -15.5 -35.5s-23 -14.5 -38 -14.5s-27.5 4.83301 -37.5 14.5z" />
    <glyph glyph-name="igrave" unicode="&#xec;" horiz-adv-x="299" 
d="M106 479h79v-479h-79v479zM45 731l235 -133l-23 -50l-245 113z" />
    <glyph glyph-name="iacute" unicode="&#xed;" horiz-adv-x="299" 
d="M106 0h79v479h-79v-479zM278 661l-244 -113l-23 50l235 133z" />
    <glyph glyph-name="icircumflex" unicode="&#xee;" horiz-adv-x="299" 
d="M106 479h79v-479h-79v479zM325 587l-50 -39l-129 108l-130 -108l-50 39l180 156z" />
    <glyph glyph-name="idieresis" unicode="&#xef;" horiz-adv-x="299" 
d="M106 479h79v-479h-79v479zM23.5 619.5c-9.66699 9.66699 -14.5 21.5 -14.5 35.5s4.83301 25.833 14.5 35.5s22.167 14.5 37.5 14.5s28.166 -4.83301 38.499 -14.5s15.5 -21.5 15.5 -35.5s-5.16699 -25.833 -15.5 -35.5s-23.166 -14.5 -38.499 -14.5
s-27.833 4.83301 -37.5 14.5zM192 619.5c-10 9.66699 -15 21.5 -15 35.5s5 25.833 15 35.5s22.5 14.5 37.5 14.5s27.667 -4.83301 38 -14.5s15.5 -21.5 15.5 -35.5s-5.16699 -25.833 -15.5 -35.5s-23 -14.5 -38 -14.5s-27.5 4.83301 -37.5 14.5z" />
    <glyph glyph-name="ntilde" unicode="&#xf1;" horiz-adv-x="604" 
d="M339 490c-76 0 -129.666 -34.667 -160.999 -104l-9 92h-68v-478h79v235c1.33301 58 14.333 103.333 39 136s57 49 97 49s70.833 -11.667 92.5 -35s32.5 -58 32.5 -104v-281h78v281c0 64.667 -15.833 115.667 -47.5 153s-75.834 56 -132.501 56zM237.001 641
c-21.333 0 -40.333 -17 -57 -51l-32 19c8 34 19.667 59.833 35 77.5s31.666 26.5 48.999 26.5s37.333 -5.66699 60 -17c30.667 -15.333 50.5 -25 59.5 -29s17.833 -6 26.5 -6s17.667 4.16699 27 12.5s17.333 21.5 24 39.5l35 -23c-7.33301 -32 -19.166 -56.667 -35.499 -74
s-31.333 -26 -45 -26s-26.167 2 -37.5 6s-27 11.167 -47 21.5s-33.5 16.833 -40.5 19.5s-14.167 4 -21.5 4z" />
    <glyph glyph-name="ograve" unicode="&#xf2;" horiz-adv-x="547" 
d="M274 490c66.667 0 120.5 -21.667 161.5 -65s61.5 -105.333 61.5 -186c0 -80 -20.5 -141.667 -61.5 -185s-94.833 -65 -161.5 -65s-120.5 21.667 -161.5 65s-61.5 105 -61.5 185c0 80.667 20.5 142.667 61.5 186s94.833 65 161.5 65zM381 373.5
c-24 32.333 -59.165 48.5 -105.498 48.5s-81.833 -16.167 -106.5 -48.5s-37 -77 -37 -134s11.667 -101.667 35 -134s58.166 -48.5 104.499 -48.5s82.166 16.167 107.499 48.5s38 77 38 134s-12 101.667 -36 134zM174.002 731l235 -133l-23 -50l-245 113z" />
    <glyph glyph-name="oacute" unicode="&#xf3;" horiz-adv-x="547" 
d="M274 490c-66.667 0 -120.5 -21.667 -161.5 -65s-61.5 -105.333 -61.5 -186c0 -80 20.5 -141.667 61.5 -185s94.833 -65 161.5 -65s120.5 21.667 161.5 65s61.5 105 61.5 185c0 80.667 -20.5 142.667 -61.5 186s-94.833 65 -161.5 65zM169 373.5
c24.667 32.333 60.165 48.5 106.498 48.5s81.5 -16.167 105.5 -48.5s36 -77 36 -134s-12.667 -101.667 -38 -134s-61.166 -48.5 -107.499 -48.5s-81.166 16.167 -104.499 48.5s-35 77 -35 134s12.333 101.667 37 134zM406.998 661l-244 -113l-23 50l235 133z" />
    <glyph glyph-name="ocircumflex" unicode="&#xf4;" horiz-adv-x="547" 
d="M274 490c66.667 0 120.5 -21.667 161.5 -65s61.5 -105.333 61.5 -186c0 -80 -20.5 -141.667 -61.5 -185s-94.833 -65 -161.5 -65s-120.5 21.667 -161.5 65s-61.5 105 -61.5 185c0 80.667 20.5 142.667 61.5 186s94.833 65 161.5 65zM381 373.5
c-24 32.333 -59.165 48.5 -105.498 48.5s-81.833 -16.167 -106.5 -48.5s-37 -77 -37 -134s11.667 -101.667 35 -134s58.166 -48.5 104.499 -48.5s82.166 16.167 107.499 48.5s38 77 38 134s-12 101.667 -36 134zM453.002 587l-50 -39l-129 108l-130 -108l-50 39l180 156z
" />
    <glyph glyph-name="otilde" unicode="&#xf5;" horiz-adv-x="547" 
d="M274 490c-66.667 0 -120.5 -21.667 -161.5 -65s-61.5 -105.333 -61.5 -186c0 -80 20.5 -141.667 61.5 -185s94.833 -65 161.5 -65s120.5 21.667 161.5 65s61.5 105 61.5 185c0 80.667 -20.5 142.667 -61.5 186s-94.833 65 -161.5 65zM169 373.5
c24.667 32.333 60.165 48.5 106.498 48.5s81.5 -16.167 105.5 -48.5s36 -77 36 -134s-12.667 -101.667 -38 -134s-61.166 -48.5 -107.499 -48.5s-81.166 16.167 -104.499 48.5s-35 77 -35 134s12.333 101.667 37 134zM205.998 641c-21.333 0 -40.333 -17 -57 -51l-32 19
c8 34 19.667 59.833 35 77.5s31.666 26.5 48.999 26.5s37 -5.66699 59 -17c31.333 -15.333 51.5 -25 60.5 -29s17.833 -6 26.5 -6s17.667 4.16699 27 12.5s17.333 21.5 24 39.5l35 -23c-7.33301 -32 -19.166 -56.667 -35.499 -74s-31.333 -26 -45 -26s-26.167 2 -37.5 6
s-27 11.167 -47 21.5s-33.5 16.833 -40.5 19.5s-14.167 4 -21.5 4z" />
    <glyph glyph-name="odieresis" unicode="&#xf6;" horiz-adv-x="547" 
d="M274 490c66.667 0 120.5 -21.667 161.5 -65s61.5 -105.333 61.5 -186c0 -80 -20.5 -141.667 -61.5 -185s-94.833 -65 -161.5 -65s-120.5 21.667 -161.5 65s-61.5 105 -61.5 185c0 80.667 20.5 142.667 61.5 186s94.833 65 161.5 65zM381 373.5
c-24 32.333 -59.165 48.5 -105.498 48.5s-81.833 -16.167 -106.5 -48.5s-37 -77 -37 -134s11.667 -101.667 35 -134s58.166 -48.5 104.499 -48.5s82.166 16.167 107.499 48.5s38 77 38 134s-12 101.667 -36 134zM152.502 619.5c-9.66699 9.66699 -14.5 21.5 -14.5 35.5
s4.83301 25.833 14.5 35.5s22.167 14.5 37.5 14.5s28.166 -4.83301 38.499 -14.5s15.5 -21.5 15.5 -35.5s-5.16699 -25.833 -15.5 -35.5s-23.166 -14.5 -38.499 -14.5s-27.833 4.83301 -37.5 14.5zM321.002 619.5c-10 9.66699 -15 21.5 -15 35.5s5 25.833 15 35.5
s22.5 14.5 37.5 14.5s27.667 -4.83301 38 -14.5s15.5 -21.5 15.5 -35.5s-5.16699 -25.833 -15.5 -35.5s-23 -14.5 -38 -14.5s-27.5 4.83301 -37.5 14.5z" />
    <glyph glyph-name="ugrave" unicode="&#xf9;" horiz-adv-x="606" 
d="M426 95c-32.667 -69.333 -85.667 -104 -159 -104c-54 0 -97.5 15 -130.5 45s-49.5 76.333 -49.5 139v304h79v-298c0 -80.667 37.333 -121 112 -121c43.333 0 78.5 16.667 105.5 50s41.167 76 42.5 128v241h79v-479h-79v95zM200 769l235 -133l-23 -50l-245 113z" />
    <glyph glyph-name="uacute" unicode="&#xfa;" horiz-adv-x="606" 
d="M267 -9c73.333 0 126.333 34.666 159 103.999v-95h79v479h-79v-233c0 -55.333 -13.667 -100.166 -41 -134.499s-63 -51.5 -107 -51.5c-74.667 0 -112 40.333 -112 121v298h-79v-304c0 -62.667 16.5 -109 49.5 -139s76.5 -45 130.5 -45zM433 698.999l-244 -113l-23 50
l235 133z" />
    <glyph glyph-name="ucircumflex" unicode="&#xfb;" horiz-adv-x="606" 
d="M426 95c-32.667 -69.333 -85.667 -104 -159 -104c-54 0 -97.5 15 -130.5 45s-49.5 76.333 -49.5 139v304h79v-298c0 -80.667 37.333 -121 112 -121c43.333 0 78.5 16.667 105.5 50s41.167 76 42.5 128v241h79v-479h-79v95zM480 625l-50 -39l-129 108l-130 -108l-50 39
l180 156z" />
    <glyph glyph-name="udieresis" unicode="&#xfc;" horiz-adv-x="606" 
d="M426 95c-32.667 -69.333 -85.667 -104 -159 -104c-54 0 -97.5 15 -130.5 45s-49.5 76.333 -49.5 139v304h79v-298c0 -80.667 37.333 -121 112 -121c43.333 0 78.5 16.667 105.5 50s41.167 76 42.5 128v241h79v-479h-79v95zM178.5 619.5
c-9.66699 9.66699 -14.5 21.5 -14.5 35.5s4.83301 25.833 14.5 35.5s22.167 14.5 37.5 14.5s28.166 -4.83301 38.499 -14.5s15.5 -21.5 15.5 -35.5s-5.16699 -25.833 -15.5 -35.5s-23.166 -14.5 -38.499 -14.5s-27.833 4.83301 -37.5 14.5zM347 619.5
c-10 9.66699 -15 21.5 -15 35.5s5 25.833 15 35.5s22.5 14.5 37.5 14.5s27.667 -4.83301 38 -14.5s15.5 -21.5 15.5 -35.5s-5.16699 -25.833 -15.5 -35.5s-23 -14.5 -38 -14.5s-27.5 4.83301 -37.5 14.5z" />
    <glyph glyph-name="dotlessi" unicode="&#x131;" 
d="M101 479h79v-479h-79v479z" />
    <glyph glyph-name="apostrophe" unicode="&#x2bc;" horiz-adv-x="184" 
d="M73 538c-10 8.66699 -15 20.335 -15 35.002s5.16699 27 15.5 37s25 15 44 15s34.833 -7.5 47.5 -22.5s19 -33.833 19 -56.5s-7.33301 -45.834 -22 -69.501s-37 -42.834 -67 -57.501l-59 29c41.333 20 66.333 45 75 75c-15.333 1.33301 -28 6.33301 -38 15z" />
    <glyph glyph-name="circumflex" unicode="&#x2c6;" horiz-adv-x="407" 
d="M383 716l-50 -39l-129 108l-130 -108l-50 39l180 156z" />
    <glyph glyph-name="tilde" unicode="&#x2dc;" horiz-adv-x="366" 
d="M112 770c-21.333 0 -40.333 -17 -57 -51l-32 19c8 34 19.667 59.833 35 77.5s31.666 26.5 48.999 26.5s37 -5.66699 59 -17c31.333 -15.333 51.5 -25 60.5 -29s17.833 -6 26.5 -6s17.667 4.16699 27 12.5s17.333 21.5 24 39.5l35 -23
c-7.33301 -32 -19.166 -56.667 -35.499 -74s-31.333 -26 -45 -26s-26.167 2 -37.5 6s-27 11.167 -47 21.5s-33.5 16.833 -40.5 19.5s-14.167 4 -21.5 4z" />
    <glyph glyph-name="endash" unicode="&#x2013;" horiz-adv-x="474" 
d="M55 325h364v-68h-364v68z" />
    <glyph glyph-name="emdash" unicode="&#x2014;" horiz-adv-x="726" 
d="M55 325h616v-68h-616v68z" />
    <glyph glyph-name="quoteleft" unicode="&#x2018;" horiz-adv-x="214" 
d="M146.5 433.5c-10.333 -10.333 -24.833 -15.501 -43.5 -15.501s-34.5 7.66699 -47.5 23s-19.5 34.5 -19.5 57.5s7.83301 46.333 23.5 70s38.5 42.834 68.5 57.501l56 -29c-41.333 -21.333 -66.333 -46.666 -75 -75.999c15.333 -1.33301 28 -6.33301 38 -15
s15 -20.334 15 -35.001s-5.16699 -27.167 -15.5 -37.5z" />
    <glyph glyph-name="quoteright" unicode="&#x2019;" horiz-adv-x="214" 
d="M52 611c10.667 10 25.499 15 44.499 15s34.667 -7.33301 47 -22s18.5 -33.667 18.5 -57s-7.83301 -46.833 -23.5 -70.5s-38.167 -43.167 -67.5 -58.5l-56 30c41.333 21.333 66.333 46.666 75 75.999c-15.333 1.33301 -28.166 6.33301 -38.499 15
s-15.5 20.334 -15.5 35.001s5.33301 27 16 37z" />
    <glyph glyph-name="rupeesymbol" unicode="&#x20b9;" horiz-adv-x="581" 
d="M92 629h416.003v-49h-183c46 -24 74 -58.333 84 -103h99v-48h-94c-4.66699 -76.667 -44.334 -129.667 -119.001 -159c-26.667 -10 -58.334 -16.667 -95.001 -20l274 -250h-112l-270 248v48h61c58 0 101 12.667 129 38s43 57 45 95h-235v48h231
c-7.33301 30.667 -24.833 55.5 -52.5 74.5s-66.834 28.5 -117.501 28.5h-61v49z" />
    <glyph glyph-name="minus" unicode="&#x2212;" horiz-adv-x="488" 
d="M409 325v-67h-330v67h330z" />
    <glyph glyph-name=".null" horiz-adv-x="0" 
 />
    <glyph glyph-name="nonmarkingreturn" horiz-adv-x="553" 
 />
    <glyph glyph-name="zero.propold" horiz-adv-x="531" 
d="M265.5 551c65.667 0 118 -24.333 157 -73s58.5 -118 58.5 -208s-19.5 -159.333 -58.5 -208s-91.333 -73 -157 -73s-117.834 24.167 -156.501 72.5s-58 117.833 -58 208.5s19.333 160.167 58 208.5s90.834 72.5 156.501 72.5zM400 270c0 141.333 -44.667 212 -134 212
s-134 -70.667 -134 -212c0 -140.667 44.667 -211 134 -211s134 70.333 134 211z" />
    <glyph glyph-name="one.propold" horiz-adv-x="331" 
d="M49 489c46 7.33301 85 24.666 117 51.999h64v-541h-78v446c-34 -21.333 -68.333 -32.666 -103 -33.999v77z" />
    <glyph glyph-name="two.propold" horiz-adv-x="575" 
d="M143 73l357 -0.000976562v-73h-436v84c0 53.333 12.333 93.833 37 121.5s62.334 47.167 113.001 58.5l103 25c35.333 8 61.5 20 78.5 36s25.5 37 25.5 63s-10.667 48 -32 66s-51.333 27 -90 27s-70.167 -7.66699 -94.5 -23s-38.5 -38.666 -42.5 -69.999h-87
c3.33301 52 24.333 92.167 63 120.5s89.5 42.5 152.5 42.5s113.833 -16.167 152.5 -48.5s58 -70.5 58 -114.5s-12.333 -78.167 -37 -102.5s-62.334 -42.5 -113.001 -54.5l-111 -27c-64.667 -14.667 -97 -47.667 -97 -99v-32z" />
    <glyph glyph-name="three.propold" horiz-adv-x="562" 
d="M260 483c-73.333 0 -117.001 -31 -131.001 -93h-83c14.667 107.333 85.667 161 213 161c62 0 112.333 -15.5 151 -46.5s58 -71.167 58 -120.5c0 -34 -9.5 -61.333 -28.5 -82s-45.5 -37.334 -79.5 -50.001c40.667 -13.333 73 -35.833 97 -67.5s36 -68.5 36 -110.5
c0 -54.667 -21.5 -99.667 -64.5 -135s-98.5 -53 -166.5 -53s-124 17.333 -168 52s-66 84.667 -66 150h80c1.33301 -46 15.833 -79.833 43.5 -101.5s63.334 -32.5 107.001 -32.5s80.167 11.833 109.5 35.5s44 53.5 44 89.5c0 58.667 -29.667 99 -89 121
c-20 7.33301 -44 11 -72 11h-61v63h43c48 0 85.833 8.66699 113.5 26s41.5 42.333 41.5 75s-11.333 58.834 -34 78.501s-54 29.5 -94 29.5z" />
    <glyph glyph-name="four.propold" horiz-adv-x="560" 
d="M427 546v-425h109v-67h-109v-159h-78v159h-325v61l329 431h74zM112 115h239v307z" />
    <glyph glyph-name="five.propold" horiz-adv-x="569" 
d="M187 296c30.667 6.66699 62 10.001 94 10.001c70 0 125 -17.667 165 -53s60 -84.333 60 -147s-22.333 -115 -67 -157s-98.667 -63 -162 -63s-114.5 16.667 -153.5 50s-58.5 79.666 -58.5 138.999h77c0 -38 11.667 -67 35 -87s56 -30 98 -30s77.667 14 107 42
s44 63.167 44 105.5s-13.5 75.5 -40.5 99.5s-66.833 36 -119.5 36h-162l28 304h345v-71h-272z" />
    <glyph glyph-name="six.propold" horiz-adv-x="573" 
d="M425 470c-11.333 65.333 -47.001 97.998 -107.001 97.998s-106.167 -24.667 -138.5 -74s-48.5 -116.666 -48.5 -201.999c0 -35.333 1.66699 -64.666 5 -87.999c4 61.333 22.833 105.833 56.5 133.5s76.834 41.5 129.501 41.5s98 -18.5 136 -55.5s57 -84.333 57 -142
s-19.667 -104.334 -59 -140.001s-91 -53.5 -155 -53.5c-74.667 0 -135 30 -181 90s-69 138.833 -69 236.5s23.333 176.334 70 236.001s110.334 89.5 191.001 89.5c56 0 101.667 -15.667 137 -47s55.666 -72.333 60.999 -123h-85zM207.499 273.498
c-25 -23.667 -37.5 -53.833 -37.5 -90.5s12.333 -66.167 37 -88.5s56 -33.5 94 -33.5s69.5 11 94.5 33s37.5 52.333 37.5 91s-12.5 69 -37.5 91s-56.333 33 -94 33s-69 -11.833 -94 -35.5z" />
    <glyph glyph-name="seven.propold" horiz-adv-x="470" 
d="M452 551v-67l-300 -582h-97l314 579h-345v70h428z" />
    <glyph glyph-name="eight.propold" horiz-adv-x="615" 
d="M201 318c-83.333 38 -125 89.6689 -125 155.002c0 50 20.667 90.333 62 121s96.166 46 164.499 46s124.5 -16.333 168.5 -49s66 -74.667 66 -126c0 -34.667 -11.5 -65.667 -34.5 -93s-56.833 -44.333 -101.5 -51l17 -6c46 -17.333 81.333 -37.833 106 -61.5
s37 -55.834 37 -96.501c0 -50.667 -22.5 -91.334 -67.5 -122.001s-105.667 -46 -182 -46s-138.166 17 -185.499 51s-71 76.667 -71 128c0 41.333 13.5 75 40.5 101s62.167 42.333 105.5 49zM276 289.002c-42 -4.66699 -75.667 -17.833 -101 -39.5s-38 -48.5 -38 -80.5
s16 -58 48 -78s73.833 -30 125.5 -30s92.667 8.66699 123 26s45.5 38.333 45.5 63s-8 44.5 -24 59.5s-38 27.5 -66 37.5zM159 463.003c0 -18 7.33203 -33.502 21.999 -46.502s35.667 -24.833 63 -35.5l73 -28c40 1.33301 73 11.833 99 31.5s39 45.334 39 77.001
s-13.667 57.334 -41 77.001s-62.666 29.5 -105.999 29.5s-79 -9.5 -107 -28.5s-42 -44.5 -42 -76.5z" />
    <glyph glyph-name="nine.propold" horiz-adv-x="580" 
d="M286 551c35.333 0 68.4971 -8.5 99.4971 -25.5s57.167 -40.167 78.5 -69.5c44 -59.333 66 -139 66 -239s-21.667 -180.167 -65 -240.5s-104.666 -90.5 -183.999 -90.5c-62 0 -112.667 18.5 -152 55.5s-59 84.167 -59 141.5h83c1.33301 -38 12.833 -68.333 34.5 -91
s50 -34 85 -34s62.833 6.66699 83.5 20c62 38 93 124.667 93 260c0 30 -1.66699 56.667 -5 80c-5.33301 -51.333 -23.666 -91.166 -54.999 -119.499s-73.166 -42.5 -125.499 -42.5s-98.333 18.667 -138 56s-59.5 84.666 -59.5 141.999c0 58 19.667 105.333 59 142
s93 55 161 55zM278.997 481c-40 0 -71.833 -11.5 -95.5 -34.5s-35.5 -54 -35.5 -93s12 -70 36 -93s55.5 -34.5 94.5 -34.5s70.833 12.333 95.5 37s37 55.667 37 93s-12 67.5 -36 90.5s-56 34.5 -96 34.5z" />
    </font>
</defs>
</svg>
