<?xml version="1.0" standalone="no"?>
<!DOCTYPE svg PUBLIC "-//W3C//DTD SVG 1.1//EN" "http://www.w3.org/Graphics/SVG/1.1/DTD/svg11.dtd" >
<svg xmlns="http://www.w3.org/2000/svg" xmlns:xlink="http://www.w3.org/1999/xlink" version="1.1">
<metadata></metadata>
<defs>
<font id="merriweatherlight" horiz-adv-x="1404" >
<font-face units-per-em="2048" ascent="1638" descent="-410" />
<missing-glyph horiz-adv-x="485" />
<glyph unicode="&#xfb01;" horiz-adv-x="1472" d="M63 1014v82l207 39v100q0 123 63.5 226.5t165 165t212.5 61.5q66 0 114 -17v-168q-16 12 -66 24.5t-116 12.5q-109 0 -158 -57.5t-49 -194.5v-153h297v-121h-297v-912l234 -14v-88h-580v88l180 16v910h-207zM895 0v88l180 16v897l-160 35v92l281 33h4l41 -33v-1026 l178 -14v-88h-524zM1030 1468q0 59 35 97.5t94 38.5q61 0 88 -34t27 -83q0 -63 -34 -99t-97 -36h-2q-111 -1 -111 116z" />
<glyph unicode="&#xfb02;" horiz-adv-x="1482" d="M63 1014v82l207 39v100q0 123 63.5 226.5t165 165t212.5 61.5q66 0 114 -17v-168q-16 12 -66 24.5t-116 12.5q-109 0 -158 -57.5t-49 -194.5v-153h297v-121h-297v-912l234 -14v-88h-580v88l180 16v910h-207zM889 0v88l180 16v1444l-174 19v75l299 35h2l39 -26v-1549 l192 -14v-88h-538z" />
<glyph horiz-adv-x="0" />
<glyph unicode="&#xd;" horiz-adv-x="485" />
<glyph horiz-adv-x="0" />
<glyph horiz-adv-x="0" />
<glyph unicode=" "  horiz-adv-x="485" />
<glyph unicode="&#x09;" horiz-adv-x="485" />
<glyph unicode="&#xa0;" horiz-adv-x="485" />
<glyph unicode="!" horiz-adv-x="727" d="M238 90q0 55 42 94t93 39q57 0 86.5 -31.5t29.5 -80.5q0 -57 -40.5 -95.5t-96.5 -38.5q-47 0 -80.5 31t-33.5 82zM252 1806h199l-43 -1335h-105z" />
<glyph unicode="&#x22;" horiz-adv-x="1226" d="M264 1683h185l-39 -722h-109zM780 1683h185l-39 -722h-109z" />
<glyph unicode="#" horiz-adv-x="1523" d="M178 426v104h242l41 453h-242v104h250l43 435h137l-45 -435h371l45 435h135l-45 -435h250v-104h-258l-39 -453h252v-104h-262l-41 -426h-135l41 426h-373l-43 -426h-140l46 426h-230zM555 530h367l45 453h-371z" />
<glyph unicode="$" horiz-adv-x="1343" d="M205 70l14 344h103l40 -256q47 -39 125 -60.5t179 -21.5q160 0 243.5 68.5t83.5 205.5q0 76 -44 134.5t-112.5 101.5t-185.5 104q-16 10 -49 27q-133 70 -212 129t-122 139t-43 193q0 150 114 245t284 113v225h131v-223q166 -8 323 -78l-10 -323h-98l-47 243 q-80 61 -222 62q-137 0 -226 -57.5t-89 -182.5q0 -82 44 -142.5t101.5 -97t178.5 -104.5q16 -10 49 -27q154 -86 230.5 -140t123.5 -129t47 -183q0 -170 -116.5 -277.5t-323.5 -121.5l-2 -238h-129l2 238q-117 8 -227.5 36.5t-157.5 53.5z" />
<glyph unicode="%" horiz-adv-x="2088" d="M117 1073q0 131 53 227.5t142 147.5t194 51q176 0 265 -114.5t89 -299.5q0 -131 -54 -226t-143.5 -145t-191.5 -50q-104 0 -185 55t-125 149.5t-44 204.5zM274 1081q0 -137 55.5 -228t153.5 -91q103 0 162.5 85t59.5 230q0 147 -54.5 235.5t-156.5 88.5q-100 0 -160 -86 t-60 -234zM647 0l658 1538h133l-656 -1538h-135zM1225 459q0 131 53 227t142 147.5t194 51.5q174 0 264 -116t90 -298q0 -131 -54 -226t-143.5 -145.5t-191.5 -50.5q-106 0 -187 55.5t-124 149.5t-43 205zM1380 469q0 -139 56.5 -230.5t152.5 -91.5q103 0 163 85t60 231 q0 145 -54 234t-156 89t-162 -86t-60 -231z" />
<glyph unicode="&#x26;" horiz-adv-x="1542" d="M139 379q0 252 307 381q-78 100 -130 213.5t-52 220.5q0 92 50.5 171t138.5 127t196 48q113 0 192 -41t118.5 -105.5t39.5 -131.5q0 -119 -46 -203t-108.5 -137.5t-199.5 -149.5q72 -86 189.5 -217t193.5 -209l57 -55q57 70 84 165t27 191q0 43 -2 62l-170 20v100h477 v-100l-174 -20q2 -145 -42 -276.5t-124 -215.5q72 -68 131.5 -99.5t139.5 -35.5v-76q-18 -8 -58.5 -13t-66.5 -5q-68 0 -124.5 29.5t-135.5 99.5q-82 -70 -185.5 -101.5t-195.5 -31.5q-240 0 -383.5 105.5t-143.5 289.5zM303 387q0 -129 96.5 -215t274.5 -86 q76 0 156.5 24.5t140.5 73.5q-129 121 -441 478l-26 30q-92 -70 -146.5 -142.5t-54.5 -162.5zM426 1206q0 -110 46 -196t118 -168q100 78 153.5 132t80 118.5t26.5 156.5q0 78 -46 142.5t-159 64.5q-92 0 -155.5 -73.5t-63.5 -176.5z" />
<glyph unicode="'" horiz-adv-x="712" d="M264 1683h185l-39 -722h-109z" />
<glyph unicode="(" horiz-adv-x="866" d="M150 684q0 266 92 482t208.5 350.5t192.5 175.5l74 -47q-63 -41 -156.5 -165t-169.5 -330t-76 -468q0 -272 76 -484t171 -340t163 -175l-82 -56q-78 47 -191.5 173t-207.5 352.5t-94 531.5z" />
<glyph unicode=")" horiz-adv-x="866" d="M141 1638l82 56q78 -47 191.5 -173t208 -352.5t94.5 -531.5q0 -266 -92.5 -482t-209 -350.5t-192.5 -175.5l-73 47q63 41 156 165t169 330t76 468q0 272 -76 484t-171 340t-163 175z" />
<glyph unicode="*" horiz-adv-x="1296" d="M166 1337l78 140l258 -183l127 -106l-35 162l-33 315h164l-27 -313l-30 -162l120 108l259 185l79 -137l-282 -136l-156 -55l156 -51l289 -129l-82 -144l-256 183l-127 106l32 -162l35 -315l-162 -2l25 317l29 162l-121 -110l-256 -185l-82 140l285 137l155 53l-155 49z " />
<glyph unicode="+" horiz-adv-x="1353" d="M219 586v133h221l176 -10l-6 180v227h133v-227l-8 -180l152 10h248v-133h-248l-152 6l8 -176v-242h-133v242l6 176l-176 -6h-221z" />
<glyph unicode="," horiz-adv-x="686" d="M215 -379q25 18 54.5 74.5t51 130.5t21.5 143q0 31 -11.5 49.5t-33.5 42.5q-27 27 -40 51.5t-13 67.5q0 47 29.5 76t70.5 29h8q66 0 105 -61.5t39 -174.5t-33 -213t-84 -172t-103 -102h-2l-59 41v18z" />
<glyph unicode="-" horiz-adv-x="1284" d="M229 596v123h826v-123h-826z" />
<glyph unicode="." horiz-adv-x="505" d="M131 92q0 57 40 96t93 39q55 0 83 -32.5t28 -81.5q0 -57 -39 -96.5t-92 -39.5q-47 0 -80 32t-33 83z" />
<glyph unicode="/" horiz-adv-x="882" d="M78 -362l573 1961h154l-574 -1961h-153z" />
<glyph unicode="0" horiz-adv-x="1298" d="M133 639q0 193 71.5 341t193.5 230t270 82q268 0 383.5 -174t115.5 -465q0 -190 -68.5 -343.5t-188 -240.5t-269.5 -87q-262 0 -385 188t-123 469zM311 664q0 -250 81 -419t255 -169q176 0 258 147.5t82 411.5q0 563 -332 563q-176 0 -260 -141.5t-84 -392.5z" />
<glyph unicode="1" horiz-adv-x="876" d="M82 1108q102 23 204.5 74t176.5 114h2l98 -20v-1172l268 -16v-88h-708v88l274 16v988q-43 -18 -137 -45t-158 -35z" />
<glyph unicode="2" horiz-adv-x="1216" d="M106 70q191 106 356 250.5t264 300t99 286.5q0 121 -71.5 192.5t-204.5 71.5q-123 0 -214 -50t-163 -120l-57 78q76 84 202.5 150.5t276.5 66.5q139 0 234.5 -52t141.5 -137t46 -183q0 -209 -200 -433.5t-490 -394.5l661 43l68 178l90 -18l-49 -299h-965z" />
<glyph unicode="3" horiz-adv-x="1138" d="M131 1133q57 57 176 110t248 53q178 0 289.5 -79.5t111.5 -245.5q0 -96 -55 -184.5t-142 -155t-186 -101.5q18 2 56 2q123 0 214 -46t139 -123.5t48 -169.5q0 -152 -90 -271t-254 -185.5t-379 -66.5q-94 1 -172 19v96q57 -16 146 -16q174 0 300 54t192.5 146t66.5 201 q0 143 -90.5 224t-278.5 83q-16 -8 -90 -24l-43 -13l-31 99q94 18 160 47q133 53 219 149t86 207q0 123 -72.5 179.5t-187.5 56.5q-92 0 -181 -34t-155 -85z" />
<glyph unicode="4" horiz-adv-x="1296" d="M86 82q135 256 315.5 630.5t315.5 678.5h49l121 -68l-574 -1108l-77 -121l575 29v409l145 13v-416l304 14v-143h-304v-330h-145v330h-682z" />
<glyph unicode="5" horiz-adv-x="1193" d="M195 555l102 725h551l20 39h119l-33 -182h-532l-98 -510q53 31 139 51t170 20q190 0 303 -111.5t113 -330.5q0 -150 -88.5 -285t-249 -218t-369.5 -83q-88 0 -143 15v77q60 -6 123 -6q150 0 273.5 59.5t195 169t71.5 248.5q0 184 -85 270.5t-234 86.5q-68 0 -154 -20.5 t-147 -49.5z" />
<glyph unicode="6" horiz-adv-x="1349" d="M166 592q0 256 122 475t314.5 361.5t398.5 181.5l39 -76q-254 -80 -427 -267.5t-234 -420.5q53 66 149.5 113t221.5 47q217 0 329.5 -125t112.5 -346q0 -147 -60.5 -275.5t-176 -205.5t-273.5 -77q-164 0 -280.5 83t-176 223.5t-59.5 308.5zM352 655q-6 -250 73 -417.5 t269 -167.5q104 0 176 62.5t107 158.5t35 201q0 211 -81 307t-220 96q-88 0 -162 -29.5t-124 -71.5t-69 -81q-4 -37 -4 -58z" />
<glyph unicode="7" horiz-adv-x="1196" d="M109 905l41 375h905l35 -45q-8 -16 -281 -789q-279 -782 -283 -790l-180 49q98 219 188.5 440.5t260.5 647.5l141 356l-647 -6l-72 -256z" />
<glyph unicode="8" horiz-adv-x="1284" d="M147 375q0 123 80 229.5t242 179.5q-125 76 -191.5 161t-66.5 216q0 119 63.5 205t166 130t216.5 44q188 0 307 -92t119 -246q0 -119 -72.5 -222t-205.5 -181q164 -90 253 -182.5t89 -225.5q0 -123 -71.5 -216t-187.5 -143t-247 -50q-125 0 -236.5 40.5t-184.5 129 t-73 223.5zM309 410q0 -156 94.5 -247t255.5 -91q80 0 154 35.5t120 100t46 146.5q0 76 -45 134.5t-110.5 100.5t-182.5 101l-88 47q-109 -51 -176.5 -138t-67.5 -189zM356 1198q0 -80 47.5 -139.5t115 -101.5t196.5 -109q102 51 162.5 131t60.5 176q0 141 -79 221t-210 80 q-123 0 -208 -70.5t-85 -187.5z" />
<glyph unicode="9" horiz-adv-x="1349" d="M160 762q0 143 62.5 265t180 195.5t275.5 73.5q170 0 284.5 -78.5t171 -213t56.5 -302.5q0 -268 -110.5 -491t-292 -366.5t-388.5 -184.5l-39 78q250 84 407 268t210 424q-51 -66 -144.5 -114t-199.5 -48q-221 0 -347 134.5t-126 359.5zM340 799q0 -219 84 -321.5 t225 -102.5q86 0 160 30.5t123 75.5t67 86q4 49 5 72q0 252 -72 408.5t-266 156.5q-104 0 -178 -59.5t-111 -152.5t-37 -193z" />
<glyph unicode=":" horiz-adv-x="706" d="M229 92q0 57 40 96t93 39q55 0 83 -32.5t28 -81.5q0 -57 -39 -96.5t-92 -39.5q-47 0 -80 32t-33 83zM229 944q0 57 40 96t93 39q55 0 83 -32.5t28 -81.5q0 -57 -39 -96.5t-92 -39.5q-47 0 -80 32t-33 83z" />
<glyph unicode=";" horiz-adv-x="706" d="M215 -379q25 18 54.5 74.5t51 130.5t21.5 143q0 31 -11.5 49.5t-33.5 42.5q-27 27 -40 51.5t-13 67.5q0 47 29.5 76t70.5 29h8q66 0 105 -61.5t39 -174.5t-33 -213t-84 -172t-103 -102h-2l-59 41v18zM233 944q0 57 40 96t94 39q55 0 82.5 -32.5t27.5 -81.5 q0 -57 -39 -96.5t-92 -39.5q-47 0 -80 32t-33 83z" />
<glyph unicode="&#x3c;" horiz-adv-x="1370" d="M168 561v109l969 508v-154l-820 -408l820 -405v-156z" />
<glyph unicode="=" horiz-adv-x="1337" d="M211 268v127h915v-127h-915zM211 836v127h915v-127h-915z" />
<glyph unicode="&#x3e;" horiz-adv-x="1370" d="M233 55v156l820 405l-820 408v154l969 -508v-109z" />
<glyph unicode="?" horiz-adv-x="974" d="M88 1810q33 18 95.5 30.5t121.5 12.5q299 0 443.5 -139t144.5 -366q0 -92 -39 -166t-93 -125t-140 -119q-68 -53 -103 -86t-53 -68v-10q0 -188 8 -295h-125q-47 117 -57 287q0 86 64.5 146.5t189.5 134.5q92 53 143 94t70 90v117q0 98 -60.5 186t-171 142.5t-258.5 54.5 q-92 0 -153 -27zM236 90q0 55 41.5 94t93.5 39q57 0 86.5 -31.5t29.5 -80.5q0 -57 -40.5 -95.5t-96.5 -38.5q-47 0 -80.5 31t-33.5 82z" />
<glyph unicode="@" horiz-adv-x="2199" d="M205 371q0 344 146.5 610t389 412.5t521.5 146.5q207 0 367.5 -84t250.5 -252t90 -413q0 -250 -95 -435.5t-225 -284t-225 -98.5q-55 0 -101 48.5t-50 130.5q-6 109 26 292q-74 -195 -180 -333t-215 -138q-70 0 -133 49.5t-103 141.5t-40 213q0 143 64.5 298.5t182 260 t269.5 104.5q57 0 123.5 -15t115.5 -44q8 27 17.5 40t23.5 9q25 -6 99 -35q-31 -147 -62.5 -337.5t-42.5 -323.5q-4 -66 -4 -84q0 -145 49 -146q78 0 169 82t155.5 229.5t64.5 336.5q0 229 -89 379.5t-236.5 221t-325.5 70.5q-227 0 -427 -126t-319.5 -358t-119.5 -538 q0 -254 83 -434t228.5 -271t335.5 -91q113 0 235.5 28.5t184.5 69.5l33 -70q-78 -63 -208 -104t-272 -41q-240 0 -408.5 107.5t-255.5 307t-87 468.5zM784 416q0 -117 38 -205t116 -88q49 0 111.5 66.5t124 178t106.5 242.5q45 127 63 236q-29 29 -106.5 51.5t-134.5 22.5 q-96 0 -169 -73t-111 -188.5t-38 -242.5z" />
<glyph unicode="A" d="M-23 0v88l132 18l507 1430h168l514 -1430l134 -18v-88h-500v88l180 18l-108 326h-639l-109 -323l182 -21v-88h-461zM399 539h568l-232 682l-57 194l-55 -201z" />
<glyph unicode="B" horiz-adv-x="1376" d="M102 0v88l177 18v1305l-173 23v88h256q68 0 175 8q98 8 145 8q266 0 386 -88t120 -256q0 -143 -79 -248.5t-224 -134.5h22q177 0 280 -92q109 -98 109 -264q0 -205 -144 -336t-472 -131q-39 0 -125 4q-106 8 -201 8h-252zM446 102q54 -16 232 -16q229 0 331.5 87 t102.5 251t-88 238.5t-285 74.5h-151q-111 0 -142 -2v-633zM446 846q33 -2 129 -2h123q156 0 238 80t82 231q0 150 -81 219.5t-278 69.5q-74 0 -151 -8q-49 -4 -62 -4v-586z" />
<glyph unicode="C" horiz-adv-x="1329" d="M74 768q0 223 96 399t262 273.5t371 97.5q104 0 201.5 -16.5t157 -30.5t73.5 -18l-16 -334h-107l-45 237q-31 27 -110.5 45.5t-194.5 18.5q-141 0 -254 -77t-177.5 -224.5t-64.5 -352.5q0 -193 56.5 -354.5t171 -258.5t282.5 -97q117 0 182.5 19.5t110.5 56.5l82 192 l100 -14l-51 -275q-49 -2 -119 -26q-74 -25 -141.5 -38.5t-167.5 -13.5q-219 0 -376.5 98.5t-239.5 276.5t-82 416z" />
<glyph unicode="D" horiz-adv-x="1548" d="M102 0v88l177 18v1305l-164 23v88h247q63 0 183 8q119 8 180 8q383 0 566.5 -193.5t183.5 -537.5q0 -244 -96.5 -430.5t-267.5 -289.5t-392 -103q-47 0 -158 8q-127 8 -196 8h-263zM446 100q84 -16 207 -16h70q168 2 297 82t201.5 233.5t72.5 370.5q0 670 -622 670 q-68 0 -154 -8q-53 -4 -72 -5v-1327z" />
<glyph unicode="E" horiz-adv-x="1329" d="M102 0v88l177 18v1305l-173 23v88h1014l29 -301h-98l-56 196l-549 10v-596l377 7l27 170h102v-453h-102l-27 174l-377 6v-631l627 17l105 256l98 -31l-64 -346h-1110z" />
<glyph unicode="F" horiz-adv-x="1263" d="M98 1434v88h1073l21 -336h-113l-55 231l-578 10v-606l410 6l35 166h94v-452h-94l-35 174l-410 8v-617l322 -18v-88h-657v88l168 18v1305z" />
<glyph unicode="G" horiz-adv-x="1511" d="M98 735q0 250 101.5 431.5t275.5 276.5t391 95q135 0 241.5 -18.5t221.5 -44.5l-16 -340h-107l-45 235q-33 27 -109.5 48.5t-203.5 21.5q-162 0 -288 -74t-197.5 -220.5t-71.5 -357.5q0 -188 58.5 -350t177 -262t288.5 -100q109 0 206 25.5t153 68.5v467l-285 20v109h581 v-109l-124 -20v-555q-43 -2 -146 -35q-104 -33 -193 -51.5t-204 -18.5q-217 0 -377 98.5t-244 270.5t-84 389z" />
<glyph unicode="H" horiz-adv-x="1687" d="M111 0v88l174 18v1305l-168 23v88h514v-88l-178 -23v-575h782v575l-170 23v88h508v-88l-168 -23v-1305l168 -18v-88h-510v88l172 18v621h-782v-621l180 -18v-88h-522z" />
<glyph unicode="I" horiz-adv-x="813" d="M123 0v88l199 18v1305l-199 23v88h567v-88l-198 -23v-1305l198 -20v-86h-567z" />
<glyph unicode="J" horiz-adv-x="768" d="M-2 -281q94 25 168 93.5t104 169.5q27 84 34 188t7 348v891l-205 25v88h572v-88l-197 -25v-846v-160q0 -129 -4 -211.5t-16 -148.5q-33 -166 -153 -268.5t-265 -128.5z" />
<glyph unicode="K" horiz-adv-x="1462" d="M109 0v88l176 18v1305l-172 23v88h516v-88l-176 -23v-745l641 745l-174 23v88h475v-88l-150 -23l-471 -526q72 -59 147.5 -166t206.5 -305q100 -156 154.5 -229.5t81.5 -75.5l96 -23v-86h-246q-38 0 -96.5 85t-163.5 267q-100 172 -160.5 266.5t-117.5 153.5l-223 -252 v-414l192 -20v-86h-536z" />
<glyph unicode="L" horiz-adv-x="1292" d="M109 0v88l176 18v1305l-172 23v88h544v-88l-204 -23v-1305l583 17l115 319l98 -16l-75 -426h-1065z" />
<glyph unicode="M" horiz-adv-x="1992" d="M16 0v88l174 18l152 1305l-227 23v88h483l317 -947l76 -274l68 274l315 947h479v-88l-225 -23l162 -1302l186 -21v-88h-551v88l191 18l-94 934l-45 410l-91 -283l-370 -1093h-82l-348 979l-133 397l-41 -410l-84 -934l200 -18v-88h-512z" />
<glyph unicode="N" horiz-adv-x="1632" d="M115 0v88l164 21v1302l-164 23v88h329l725 -1051l117 -205v1145l-180 23v88h467v-88l-168 -23v-1411h-107l-733 1055l-168 272v-1221l187 -18v-88h-469z" />
<glyph unicode="O" horiz-adv-x="1472" d="M76 750q0 236 90 414.5t245.5 276t346.5 97.5q203 0 347 -94t219 -266t75 -404q0 -238 -92.5 -419t-250 -279.5t-349.5 -98.5q-199 0 -341.5 97.5t-216 271.5t-73.5 404zM262 750q0 -197 55.5 -350.5t162 -239.5t253.5 -86q143 0 250 78.5t166 236.5t59 385 q0 199 -55 349.5t-160.5 234.5t-253.5 84q-219 0 -348 -177.5t-129 -514.5z" />
<glyph unicode="P" horiz-adv-x="1312" d="M109 0v88l176 18v1305l-164 23v88h248q45 0 89 3t64 3q106 8 205 8q289 0 408.5 -107.5t119.5 -322.5q0 -162 -77.5 -280.5t-210.5 -181t-297 -62.5q-66 0 -134.5 3t-82.5 5v-481l284 -21v-88h-628zM453 690q51 -8 221 -8q176 0 288.5 99.5t112.5 324.5q0 178 -96 255 t-303 77q-63 0 -141 -8q-61 -4 -82 -5v-735z" />
<glyph unicode="Q" horiz-adv-x="1484" d="M82 750q0 236 90 414.5t245.5 276t346.5 97.5q203 0 347 -94t219 -266t75 -404q0 -268 -114.5 -461.5t-307.5 -279.5q100 -6 189.5 -46t213.5 -114q127 -72 210 -107.5t171 -35.5l48 2l20 -84q-33 -29 -79 -45.5t-89 -16.5q-92 0 -175 32t-148.5 76t-161.5 118 q-102 82 -173 125t-149 57q-63 -16 -149 -17q-199 0 -340.5 97.5t-215 271.5t-73.5 404zM268 750q0 -197 55.5 -350.5t162 -239.5t253.5 -86q144 0 250.5 78.5t165.5 236.5t59 385q0 199 -55 349.5t-160.5 234.5t-253.5 84q-219 0 -348 -177.5t-129 -514.5z" />
<glyph unicode="R" horiz-adv-x="1419" d="M102 0v88l177 18v1307l-164 25v84h250q55 0 157 8q98 8 146 8q293 0 417.5 -98.5t124.5 -302.5q0 -150 -83 -271t-224 -161q53 -35 107.5 -116t134.5 -224q70 -125 111.5 -187.5t74.5 -68.5l86 -23v-86h-239q-33 0 -76 69.5t-121 225.5q-84 170 -138.5 260t-107.5 121 q-250 0 -289 2v-572l211 -18v-88h-555zM446 778q37 -2 148 -2h129q141 0 223 88t82 258q0 150 -84 233t-293 83q-72 0 -141 -8q-49 -4 -64 -5v-647z" />
<glyph unicode="S" horiz-adv-x="1204" d="M133 72l17 364h106l31 -268q39 -37 124 -63.5t185 -26.5q166 0 254 75.5t88 208.5q0 86 -46 145.5t-119 100.5t-202 97q-121 51 -205.5 102t-148 138t-63.5 208q0 113 61 201t171 136t251 48q86 0 152.5 -13.5t168.5 -41.5q55 -16 66 -19l-12 -336h-103l-37 254 q-25 20 -95 40t-150 20q-152 0 -232 -62.5t-80 -185.5q0 -84 43 -140.5t111 -95t209 -104.5q147 -70 230 -120t145.5 -131t62.5 -195q0 -109 -63.5 -208.5t-184 -161t-282.5 -61.5q-105 0 -184.5 18.5t-184.5 51.5q-70 23 -84 25z" />
<glyph unicode="T" horiz-adv-x="1390" d="M37 1001l35 521h1247l22 -521h-108l-57 416l-396 13v-1324l293 -18v-88h-737v88l268 18v1324l-389 -13l-65 -416h-113z" />
<glyph unicode="U" horiz-adv-x="1511" d="M55 1434v88h502v-88l-176 -23v-778q0 -299 107.5 -424t304.5 -125t297 135t100 397v793l-170 25v88h455v-88l-156 -23v-786q0 -319 -148.5 -480t-394.5 -161q-295 0 -431 162.5t-136 504.5v760z" />
<glyph unicode="V" horiz-adv-x="1351" d="M-31 1434v88h498v-88l-188 -23l356 -987l86 -279l78 283l319 983l-164 23v88h432v-88l-131 -23l-493 -1427h-135l-531 1427z" />
<glyph unicode="W" horiz-adv-x="2025" d="M-41 1434v88h516v-88l-201 -23l297 -973l68 -323l80 323l246 801l-56 172l-151 23v88h532v-88l-203 -23l289 -973l80 -348l68 348l272 973l-215 23v88h485v-88l-137 -23l-420 -1421h-157l-332 1071l-326 -1071h-149l-443 1419z" />
<glyph unicode="X" horiz-adv-x="1449" d="M14 0v88l179 18l448 664l-432 639l-158 25v88h574v-88l-209 -25l344 -551l340 553l-185 23v88h490v-88l-162 -25l-428 -618l465 -685l164 -18v-88h-572v88l201 18l-373 594l-358 -594l211 -18v-88h-539z" />
<glyph unicode="Y" horiz-adv-x="1310" d="M-18 1434v88h489v-88l-172 -23l309 -580l74 -163l80 163l297 580l-172 23v88h444v-88l-135 -23l-442 -823v-479l233 -21v-88h-633v88l228 18v480l-473 823z" />
<glyph unicode="Z" horiz-adv-x="1337" d="M86 80l817 1206l117 148l-651 -21l-101 -266l-94 10l43 371h965l45 -76l-803 -1196l-133 -160l758 35l102 324l98 -23l-49 -432h-1065z" />
<glyph unicode="[" horiz-adv-x="872" d="M203 -90v1546q0 82 15 122t50 54.5t103 14.5q137 0 307 -35v-76h-328v-1704h328v-76q-156 -37 -307 -37q-68 0 -103 14.5t-50 54.5t-15 122z" />
<glyph unicode="\" horiz-adv-x="882" d="M72 1599h153l574 -1961h-154z" />
<glyph unicode="]" horiz-adv-x="872" d="M195 -168h327v1704h-327v76q170 35 307 35q68 0 102.5 -14.5t50 -54.5t15.5 -122v-1546q0 -82 -15.5 -122t-50.5 -54.5t-102 -14.5q-152 0 -307 37v76z" />
<glyph unicode="^" horiz-adv-x="1363" d="M184 272l412 1260h168l414 -1260h-134l-364 1084l-363 -1084h-133z" />
<glyph unicode="_" horiz-adv-x="1710" d="M-20 -250h1751v-112h-1751v112z" />
<glyph unicode="`" horiz-adv-x="681" d="M0 1688l129 110l320 -393l-60 -55h-2q-55 22 -201.5 150t-185.5 188z" />
<glyph unicode="a" horiz-adv-x="1140" d="M104 299q0 199 197 288t490 95v63q0 104 -21.5 165t-75 88.5t-149.5 27.5q-104 0 -189.5 -31.5t-165.5 -76.5l-45 90q23 20 94.5 57t164 65.5t178.5 28.5q139 0 220 -39t116.5 -125t35.5 -231v-676h127v-76q-109 -30 -185 -30h-5q-49 0 -67.5 15t-18.5 71v75 q-74 -66 -161 -116t-198 -50q-147 0 -244.5 82t-97.5 240zM287 319q0 -117 59.5 -169t161.5 -52q57 0 137 37t146 88v363q-248 -2 -376 -74t-128 -193z" />
<glyph unicode="b" horiz-adv-x="1228" d="M-6 1567v75l299 35h4l39 -28v-623q63 59 152.5 100t197.5 41q121 0 222.5 -59t164 -184t62.5 -314q0 -176 -72 -320.5t-205 -228.5t-307 -84q-127 0 -241.5 27t-139.5 51v1493zM336 154q14 -33 80.5 -52.5t148.5 -19.5q176 0 282.5 130t106.5 382q0 225 -95 336.5 t-241 111.5q-86 0 -161.5 -40.5t-120.5 -90.5v-757z" />
<glyph unicode="c" horiz-adv-x="1042" d="M70 561q0 166 64.5 304.5t192.5 220t312 81.5q80 0 155.5 -19.5t131.5 -41.5l-8 -293h-103l-43 197q-12 61 -176 61q-160 0 -255 -123t-95 -336q0 -254 102.5 -385t265.5 -131q86 0 167 29t134 65l33 -67q-59 -59 -163.5 -102.5t-206.5 -43.5q-162 0 -277 77t-173 209 t-58 298z" />
<glyph unicode="d" horiz-adv-x="1265" d="M94 541q0 176 72 318t204 225t308 83q113 0 217 -24v405l-213 21v73l336 35h4l39 -28v-1557h125v-80q-10 -2 -69.5 -16t-127.5 -14q-47 0 -66.5 16t-19.5 72v71q-63 -70 -154.5 -117t-205.5 -47q-121 0 -223.5 62.5t-164 189.5t-61.5 312zM274 557q0 -229 94.5 -340 t241.5 -111q88 0 167 42t118 94v753q-16 29 -85 49.5t-146 20.5q-176 0 -283 -126t-107 -382z" />
<glyph unicode="e" horiz-adv-x="1105" d="M96 573q0 174 67.5 309.5t187.5 210t270 74.5q182 0 283.5 -104.5t109.5 -300.5q0 -127 -13 -180h-729q0 -215 97.5 -351.5t273.5 -136.5q86 0 176 31t139 74l33 -76q-59 -61 -172.5 -103.5t-228.5 -42.5q-238 0 -366 163t-128 433zM274 678h555q6 43 7 90 q-2 135 -64.5 215t-191.5 80q-281 0 -306 -385z" />
<glyph unicode="f" horiz-adv-x="808" d="M63 1014v82l207 39v100q0 123 63.5 226.5t165 165t212.5 61.5q66 0 114 -17v-168q-16 12 -66 24.5t-116 12.5q-109 0 -158 -57.5t-49 -194.5v-153h297v-121h-297v-912l234 -14v-88h-580v88l180 16v910h-207z" />
<glyph unicode="g" horiz-adv-x="1222" d="M94 -246q0 92 56.5 168t134.5 119q-96 51 -97 170q0 76 43 142.5t111 101.5q-96 45 -150.5 128t-54.5 193q0 119 65.5 208t171 136t220.5 47q190 0 305 -84q31 29 95.5 56.5t138.5 27.5h67v-151h-233q59 -82 59 -199q0 -121 -61.5 -214t-165 -144t-228.5 -51 q-84 0 -153 18q-37 -29 -58.5 -66.5t-21.5 -76.5q0 -78 50 -109t175 -31h242q190 0 281.5 -73.5t91.5 -206.5q0 -111 -80 -206t-218.5 -152.5t-301.5 -57.5q-484 0 -484 307zM260 -213q0 -117 74 -176.5t254 -59.5q110 0 210.5 32t162 92.5t61.5 140.5q0 63 -19.5 102 t-76 60.5t-162.5 21.5h-254q-98 0 -150 12q-100 -96 -100 -225zM311 799q0 -129 70 -210t211 -81q260 0 260 287q0 272 -270 272t-271 -268z" />
<glyph unicode="h" horiz-adv-x="1335" d="M29 1567v75l303 35h4l39 -26v-488l-4 -170q66 59 184.5 114.5t232.5 55.5q129 0 201 -49t100.5 -152.5t28.5 -279.5v-578l150 -16v-88h-459v88l143 16v580q0 131 -17 205t-68.5 110.5t-149.5 36.5q-82 0 -176.5 -40t-165.5 -95v-797l151 -16v-88h-444v88l129 14v1446z " />
<glyph unicode="i" horiz-adv-x="663" d="M86 0v88l180 16v897l-160 35v92l281 33h4l41 -33v-1026l178 -14v-88h-524zM221 1468q0 59 35 97.5t94 38.5q61 0 88 -34t27 -83q0 -63 -34 -99t-97 -36h-2h-2q-109 0 -109 116z" />
<glyph unicode="j" horiz-adv-x="630" d="M-20 -406q16 -2 48.5 3.5t67.5 17.5q88 27 123 139.5t35 296.5l-2 942l-162 37v98l285 33h4l39 -33v-1116q0 -481 -314 -510q-12 -1 -29 -1t-37 1q-42 2 -50 9zM217 1468q0 59 35 97.5t94 38.5q61 0 88 -34t27 -83q0 -63 -34 -99t-97 -36h-2h-2q-109 0 -109 116z" />
<glyph unicode="k" horiz-adv-x="1189" d="M41 1567v75l293 35h2l39 -26v-1018l-4 -129l508 522l-154 29v82h471v-82l-158 -29l-331 -326l407 -598l135 -14v-88h-469v88l142 16l-322 504l-229 -225l4 -104v-175l157 -16v-88h-458v88l135 16v1444z" />
<glyph unicode="l" horiz-adv-x="673" d="M80 0v88l180 16v1444l-174 19v75l299 35h2l39 -26v-1549l192 -14v-88h-538z" />
<glyph unicode="m" horiz-adv-x="2015" d="M63 1036v92l261 33l45 -33v-90l-2 -51q76 66 198.5 121t222.5 55q111 0 177.5 -36.5t101.5 -114.5q63 53 185 102t225 49q129 0 199.5 -49t99 -151.5t28.5 -276.5v-582l156 -16v-88h-459v88l139 16v576q0 129 -18 205t-71.5 114.5t-155.5 38.5q-76 0 -159 -33.5 t-142 -76.5q20 -94 20 -246v-578l156 -16v-88h-469v88l147 16v580q0 131 -15 205t-64.5 110.5t-145.5 36.5q-80 0 -173 -40t-163 -95v-797l145 -16v-88h-442v88l131 16v897z" />
<glyph unicode="n" horiz-adv-x="1337" d="M63 1036v92l261 33h6l39 -33v-90l-2 -51q76 66 200.5 121t231.5 55q131 0 201.5 -50t98 -153.5t27.5 -277.5v-580l154 -14v-88h-457v88l138 14v582q0 129 -17.5 203t-68 111.5t-146.5 37.5q-82 0 -177 -41t-165 -96v-795l150 -16v-88h-453v88l137 16v897z" />
<glyph unicode="o" horiz-adv-x="1218" d="M92 575q0 179 75 314t196.5 206.5t254.5 71.5q258 0 382 -168t124 -430q0 -178 -74.5 -313t-196.5 -207t-255 -72q-258 0 -382 168t-124 430zM279 588q0 -223 80.5 -363.5t248.5 -140.5q158 0 244 121t86 352q0 221 -80 362.5t-248 141.5q-158 0 -244.5 -121t-86.5 -352z " />
<glyph unicode="p" horiz-adv-x="1277" d="M61 1036v92l263 33h4l37 -33v-124q66 68 159.5 115.5t210.5 47.5q119 0 221.5 -59t165 -184t62.5 -314q0 -176 -72 -320.5t-204 -228.5t-302 -84q-57 0 -120.5 9.5t-104.5 23.5l4 -174v-221l227 -21v-90h-549v90l158 21v1386zM385 143q16 -27 83 -48t146 -21 q176 0 284 130t108 384q0 227 -95.5 340.5t-242.5 113.5q-88 0 -164 -36.5t-119 -81.5v-781z" />
<glyph unicode="q" horiz-adv-x="1239" d="M94 547q0 176 72 317.5t204 222t308 80.5q123 0 254 -34l92 28l35 -33v-1519l143 -21v-84h-538v84l229 21v344l6 176q-156 -152 -354 -152q-119 0 -222.5 62.5t-166 191.5t-62.5 316zM274 563q0 -154 45.5 -258t122 -156.5t170.5 -52.5q88 0 162 38t119 85v787 q-12 27 -83 49t-148 22q-174 0 -281 -129t-107 -385z" />
<glyph unicode="r" horiz-adv-x="921" d="M100 0v86l164 12v903l-158 35v92l261 33h4l39 -33v-32l-4 -156h4q4 4 54 62.5t149.5 111.5t199.5 53q33 0 61 -8v-180q-8 6 -35.5 12t-58.5 6q-117 0 -198.5 -34.5t-151.5 -85.5v-777l272 -16v-84h-602z" />
<glyph unicode="s" horiz-adv-x="1015" d="M119 63v259h110l31 -160q23 -35 94.5 -61.5t153.5 -26.5q250 0 250 184q0 84 -70 136t-237 116q-166 59 -242 141t-76 219q0 88 54.5 154t145.5 101.5t197 35.5q104 0 175 -18.5t141 -44.5v-244h-101l-36 150q-14 27 -72.5 45t-128.5 18q-98 0 -159.5 -44t-61.5 -118 q0 -66 30.5 -108.5t75.5 -68.5t125 -58l39 -17q117 -45 188.5 -85t118.5 -104.5t47 -160.5q0 -152 -115.5 -239t-308.5 -87q-88 0 -200.5 29t-167.5 57z" />
<glyph unicode="t" horiz-adv-x="831" d="M72 1016v80q102 23 118 32q31 16 46 64q12 31 32.5 110.5t30.5 124.5h94v-290h363v-121h-363v-664q0 -119 8.5 -167t33 -62t85.5 -14q59 0 133 16t111 35l27 -78q-47 -37 -156 -71t-189 -34q-108 0 -163.5 50.5t-55.5 179.5v809h-155z" />
<glyph unicode="u" horiz-adv-x="1286" d="M80 1059v76l248 26h2l37 -24v-691q0 -129 18 -201.5t67.5 -107.5t143.5 -35q90 0 172 39t141 92v791l-155 35v76l272 26h2l47 -24v-1047h127l-2 -78q-10 -2 -59 -16t-111 -14q-53 0 -77.5 18t-24.5 68v79q-76 -68 -178.5 -119t-204.5 -51q-186 0 -265 104.5t-79 340.5 v602z" />
<glyph unicode="v" horiz-adv-x="1159" d="M4 1053v84h434v-84l-151 -27l219 -608l100 -291l86 281l219 618l-143 27v84h391v-84l-104 -27l-404 -1042h-137l-414 1042z" />
<glyph unicode="w" horiz-adv-x="1716" d="M-6 1053v84h444v-84l-164 -25l183 -637l67 -285l68 287l205 744h170l204 -744l66 -289l74 287l180 635l-158 27v84h402v-84l-113 -27l-319 -1042h-166l-224 761l-57 259l-49 -259l-215 -761h-162l-328 1044z" />
<glyph unicode="x" horiz-adv-x="1206" d="M16 0v86l142 18l362 467l-350 457l-121 25v84h473v-84l-149 -25l202 -287l62 -90l55 88l215 289l-157 25v84h424v-84l-127 -25l-351 -438l369 -488l123 -16v-86h-486v86l146 18l-205 302l-63 92l-58 -90l-217 -304l180 -18v-86h-469z" />
<glyph unicode="y" horiz-adv-x="1171" d="M4 1053v84h453v-84l-166 -25l215 -627l106 -333l103 335l192 625l-143 25v84h393v-84l-106 -25q-154 -471 -243 -736t-114 -325q-72 -180 -127 -277.5t-131 -148.5t-190 -51q-29 0 -58.5 4t-42.5 10v152q25 -12 105 -12q63 0 115.5 25.5t107.5 103t109 227.5h-90 l-392 1026z" />
<glyph unicode="z" horiz-adv-x="1128" d="M72 78l645 833l127 119l-557 -14l-29 -193h-113v314h852l35 -76l-637 -840l-139 -117l606 19l80 223l105 -12l-39 -334h-899z" />
<glyph unicode="{" horiz-adv-x="1026" d="M104 623v143q117 0 180.5 14.5t87 45t23.5 83.5q0 49 -10 94.5t-31 122.5q-25 76 -37 137.5t-12 129.5q0 254 348 254q86 0 207 -33v-82q-8 2 -60 4t-79 2q-252 0 -252 -174q0 -55 13.5 -129t17.5 -92q35 -156 35 -244q0 -90 -78 -141t-195 -70q113 -16 193 -71.5 t80 -147.5q0 -86 -35 -244q-4 -16 -17.5 -90t-13.5 -129q0 -176 252 -176q27 0 78 3t61 5v-82q-68 -18 -113 -26.5t-94 -8.5q-348 0 -348 254q0 68 13.5 130.5t35.5 138.5q20 78 30.5 123t10.5 94q0 82 -61.5 123t-229.5 39z" />
<glyph unicode="|" horiz-adv-x="864" d="M358 -186v1966h148v-1966h-148z" />
<glyph unicode="}" horiz-adv-x="1026" d="M166 -162q10 -2 61.5 -5t77.5 -3q252 0 252 176q0 55 -13.5 129t-17.5 90q-35 158 -34 244q0 92 79.5 147.5t192.5 71.5q-117 18 -194.5 69.5t-77.5 141.5q0 88 34 244q4 18 17.5 92t13.5 129q0 174 -252 174q-27 0 -79 -2t-60 -4v82q121 33 207 33q348 0 348 -254 q0 -68 -12.5 -129.5t-36.5 -137.5q-20 -78 -30.5 -123t-10.5 -94q0 -53 23.5 -83.5t87 -45t180.5 -14.5v-143q-168 2 -229.5 -39t-61.5 -123q0 -49 10 -94t31 -123q23 -76 36 -138.5t13 -130.5q0 -254 -348 -254q-49 0 -94.5 8.5t-112.5 26.5v82z" />
<glyph unicode="~" horiz-adv-x="1411" d="M225 590q41 69 124 122.5t183 53.5q61 0 106.5 -23.5t109.5 -70.5q51 -39 82.5 -56.5t72.5 -17.5q68 0 121 34t92 85l70 -76q-43 -72 -125 -124t-180 -52q-63 0 -108.5 23.5t-102.5 68.5q-49 39 -83 57.5t-77 18.5q-125 0 -215 -121z" />
<glyph unicode="&#xa1;" horiz-adv-x="727" d="M240 1305q0 57 41 95t96 38q47 0 81 -31t34 -82q0 -55 -42 -94t-94 -39q-57 0 -86.5 31.5t-29.5 81.5zM279 -365l43 1309h104l47 -1309h-194z" />
<glyph unicode="&#xa2;" horiz-adv-x="1191" d="M152 561q0 156 57 289t173 218t282 97l16 232h117l-19 -232q115 -12 232 -59l-11 -293h-102l-43 197q-12 61 -176 61q-160 0 -254 -123t-94 -336q0 -254 102.5 -385t263.5 -131q86 0 168 29t133 65l33 -67q-53 -55 -147.5 -96t-192.5 -50l-12 -221h-115l12 228 q-203 29 -313 187.5t-110 389.5z" />
<glyph unicode="&#xa3;" horiz-adv-x="1490" d="M109 76q0 37 31.5 70.5t86 53t115.5 17.5q25 37 43 136.5t18 183.5v245h-208v99h208v141q0 152 66 269.5t177.5 182t242.5 64.5q111 0 202 -32.5t150 -84.5l-92 -135q-12 23 -58.5 56.5t-115 59t-146.5 25.5q-252 0 -251 -366v-180h323v-99h-323v-225q0 -207 -123 -358 q82 -6 241 -39q94 -20 158 -30.5t127 -10.5q121 0 168 46t47 154q0 59 -13.5 113.5t-33.5 75.5h180q37 -49 37 -162q0 -92 -50 -176t-139.5 -134t-197.5 -50q-84 0 -155.5 17t-168.5 52q-92 33 -148 47.5t-120 14.5q-96 -117 -188 -117q-33 0 -61.5 18.5t-28.5 57.5z" />
<glyph unicode="&#xa4;" horiz-adv-x="1546" d="M215 295l207 207q-80 112 -80 262q0 154 84 272l-211 213l102 105l213 -213q109 76 240 76q135 0 246 -72l213 211l102 -105l-207 -207q86 -117 86 -262q0 -154 -92 -274l209 -209l-102 -104l-211 211q-113 -76 -244 -76q-129 0 -242 69l-211 -209zM473 766 q0 -86 40 -157.5t107.5 -112.5t149.5 -41q145 0 222 89t77 226q0 84 -41 159t-110.5 119t-151.5 44q-137 0 -215 -95.5t-78 -230.5z" />
<glyph unicode="&#xa5;" horiz-adv-x="1540" d="M119 1446v76h489v-76l-151 -21l280 -444l66 -129l78 133l247 440l-153 21v76h446v-76l-143 -25l-375 -571h416v-98h-467v-285h467v-98h-467v-269l240 -22v-78h-621v78l238 22v269h-467v98h467v285h-467v98h401l-393 571z" />
<glyph unicode="&#xa6;" horiz-adv-x="864" d="M358 -186v827h148v-827h-148zM358 950v830h148v-830h-148z" />
<glyph unicode="&#xa7;" horiz-adv-x="1363" d="M190 -109l23 355h106l31 -258q39 -35 127 -61.5t185 -26.5q170 0 256 55t86 145q0 74 -52.5 128.5t-128 89t-217.5 88.5q-182 70 -299 172t-117 274q0 86 37 148.5t109 113.5q-111 106 -111 240q0 98 59.5 173t168 115.5t256.5 40.5q90 0 163.5 -15t155.5 -40 q61 -18 68 -18l-13 -326h-100l-47 244q-16 16 -83 33.5t-151 17.5q-154 0 -236.5 -49t-82.5 -141q0 -78 41 -130.5t104.5 -86t173.5 -78.5l46 -19q119 -49 209 -100t157.5 -135t67.5 -197q0 -154 -146 -276q127 -102 127 -224q0 -90 -55 -168.5t-170 -128t-287 -49.5 q-104 0 -189 19.5t-186 50.5q-68 23 -86 24zM340 889q0 -86 44 -148.5t119 -106.5t195 -93q13 -6 91.5 -38t150.5 -73q78 74 78 178q0 115 -91 188.5t-272 141.5q-147 55 -235 113q-41 -35 -60.5 -73t-19.5 -89z" />
<glyph unicode="&#xa8;" horiz-adv-x="1024" d="M174 1489q0 55 32 95t89 40q49 0 78.5 -36t29.5 -83q0 -57 -32.5 -95t-91.5 -38q-48 0 -76.5 33t-28.5 84zM621 1489q0 55 31.5 95t88.5 40q49 0 79 -36t30 -83q0 -57 -33 -95t-94 -38q-45 0 -73.5 34t-28.5 83z" />
<glyph unicode="&#xa9;" horiz-adv-x="2129" d="M195 1004q0 239 115.5 440t315 318.5t439.5 117.5t439.5 -117.5t315 -318.5t115.5 -440q0 -240 -115.5 -443t-315 -320.5t-439.5 -117.5t-439.5 117.5t-315 320.5t-115.5 443zM305 1004q0 -211 100.5 -390.5t274.5 -286t385 -106.5q209 0 383 106.5t274.5 286 t100.5 390.5q0 209 -100.5 388t-274.5 285.5t-383 106.5q-211 0 -385 -106.5t-274.5 -286t-100.5 -387.5zM623 993q0 139 65.5 254t181 181.5t258.5 66.5q74 0 152 -16.5t104 -42.5v-215h-98l-39 131q-25 18 -65.5 27.5t-114.5 9.5q-131 0 -208 -97.5t-77 -265.5 q0 -174 94.5 -278.5t249.5 -104.5q133 0 228 94l41 -69q-49 -61 -137.5 -106.5t-188.5 -45.5q-215 0 -330.5 131t-115.5 346z" />
<glyph unicode="&#xaa;" horiz-adv-x="1030" d="M129 973q0 147 147.5 221t440.5 82v29q0 94 -20.5 144t-66.5 69.5t-132 19.5q-78 0 -157 -23.5t-144 -56.5l-50 86q63 41 178 77t205 36q178 0 259 -75t81 -257v-506h115v-71q-98 -25 -164 -25q-51 0 -73.5 12.5t-22.5 55.5v69q-143 -139 -315 -139q-123 0 -202 70.5 t-79 181.5zM297 985q0 -70 47 -113t131 -43q64 0 138.5 37t103.5 70v254q-227 -6 -323.5 -54.5t-96.5 -150.5z" />
<glyph unicode="&#xab;" horiz-adv-x="1349" d="M115 545v135l442 440l92 -67l-340 -439l340 -424l-92 -73zM651 545v135l471 440l92 -67l-368 -439l368 -424l-92 -73z" />
<glyph unicode="&#xac;" horiz-adv-x="1409" d="M211 608v111h989v-531h-137v420h-852z" />
<glyph unicode="&#xad;" horiz-adv-x="1284" d="M229 596v123h826v-123h-826z" />
<glyph unicode="&#xae;" horiz-adv-x="2129" d="M195 1004q0 239 115.5 440t315 318.5t439.5 117.5t439.5 -117.5t315 -318.5t115.5 -440q0 -240 -115.5 -443t-315 -320.5t-439.5 -117.5t-439.5 117.5t-315 320.5t-115.5 443zM305 1004q0 -211 100.5 -390.5t274.5 -286t385 -106.5q209 0 383 106.5t274.5 286 t100.5 390.5q0 209 -100.5 388t-274.5 285.5t-383 106.5q-211 0 -385 -106.5t-274.5 -286t-100.5 -387.5zM672 518v76l96 22v760l-96 21v84h151q59 0 154 4l104 2q176 0 270.5 -65.5t94.5 -182.5t-61.5 -194.5t-163.5 -102.5q57 -29 86.5 -72t60.5 -114q29 -74 58.5 -109 t95.5 -41v-88h-133q-68 0 -97.5 44t-56.5 132q-27 90 -57.5 142.5t-96.5 78.5l-178 3v-306l111 -18v-76h-342zM903 1024q32 -6 184 -6q84 0 142.5 56t58.5 138q0 96 -57 138.5t-176 42.5q-90 0 -152 -11v-358z" />
<glyph unicode="&#xaf;" horiz-adv-x="681" d="M72 1432v124h534v-124h-534z" />
<glyph unicode="&#xb0;" horiz-adv-x="915" d="M115 1292q0 96 46 174t125 123t171 45q98 0 177 -46t124 -125t45 -171q0 -96 -46 -174t-126 -123t-174 -45q-92 0 -171 46t-125 125t-46 171zM233 1292q0 -94 67 -160.5t159 -66.5q98 0 160.5 63.5t62.5 163.5q0 94 -65.5 162t-159.5 68q-96 0 -160 -65.5t-64 -164.5z " />
<glyph unicode="&#xb1;" horiz-adv-x="1353" d="M219 586v133h221l174 -10l-4 180v227h133v-227l-8 -180l152 10h248v-133h-248l-152 6l8 -176v-230h-133v230l4 176l-174 -6h-221zM233 0v125h885v-125h-885z" />
<glyph unicode="&#xb2;" horiz-adv-x="1009" d="M131 1486q43 61 145.5 116.5t219.5 55.5q160 0 247.5 -78.5t87.5 -205.5q0 -96 -74.5 -215t-195.5 -232.5t-256 -199.5l443 26l73 158l88 -18l-51 -263h-684l-31 80q97 62 217.5 162t218 224t97.5 235q0 96 -54.5 154.5t-154.5 58.5q-86 0 -163 -37t-118 -82z" />
<glyph unicode="&#xb3;" horiz-adv-x="995" d="M152 1560q51 51 145 80t209 29q137 0 220 -64.5t83 -163.5q0 -84 -51 -152.5t-178 -119.5l36 2q100 0 165 -36t93.5 -88t28.5 -105q0 -137 -120.5 -224.5t-340.5 -87.5q-63 0 -138 14.5t-138 43.5v96q137 -51 246 -51q168 0 252 51t84 160q0 47 -32 89t-89.5 66.5 t-132.5 20.5q-12 -6 -121 -45l-31 92q59 12 145 53q166 84 166 201q0 68 -45 101.5t-143 33.5q-76 0 -147.5 -21.5t-114.5 -56.5z" />
<glyph unicode="&#xb4;" horiz-adv-x="681" d="M231 1405l320 393l129 -110q-39 -59 -182.5 -183.5t-208.5 -154.5z" />
<glyph unicode="&#xb5;" horiz-adv-x="1398" d="M139 1071v59l256 27l37 -22v-809q0 -41 30 -93.5t90 -90.5t148 -38q106 0 175 50.5t104 109.5v762l-150 43v64l287 24l27 -22v-1047h127v-80q-29 -14 -85.5 -24.5t-103.5 -10.5q-88 0 -88 76v109q-41 -76 -121.5 -127t-179.5 -51q-80 0 -154.5 31.5t-117.5 84.5v-469 h-152v1399z" />
<glyph unicode="&#xb6;" horiz-adv-x="1427" d="M92 1272q0 127 62.5 226t186.5 155.5t300 56.5q86 0 217 -8q117 -10 248 -10h190v-90l-178 -21v-1477l154 -18v-86h-309v1575q-172 14 -240 14l-37 -2v-1587h-356v86l200 18v717q-219 0 -328.5 116t-109.5 335z" />
<glyph unicode="&#xb7;" horiz-adv-x="305" d="M31 770q0 57 40 96t93 39q55 0 82.5 -32.5t27.5 -81.5q0 -57 -38.5 -96.5t-92.5 -39.5q-47 0 -79.5 32t-32.5 83z" />
<glyph unicode="&#xb8;" horiz-adv-x="614" d="M0 -455l2 121q20 -6 48 -11t46 -5q82 0 119 28.5t37 116.5q0 55 -23.5 113.5t-46.5 91.5l47 12l37 -12q43 -39 86 -119t43 -162q0 -109 -62.5 -154.5t-187.5 -45.5q-34 0 -75 8t-70 18z" />
<glyph unicode="&#xb9;" horiz-adv-x="983" d="M182 1515q102 31 184.5 67t159.5 95h4l86 -16v-926l226 -21v-84h-633v84l262 19v766q-92 -37 -268 -76z" />
<glyph unicode="&#xba;" horiz-adv-x="1038" d="M106 1176q0 154 63.5 258t161 155t199.5 51q186 0 294 -117.5t108 -334.5q0 -160 -62.5 -266.5t-159 -155.5t-194.5 -49q-115 0 -208 50t-147.5 153.5t-54.5 255.5zM274 1194q0 -121 33 -209t87.5 -134t119.5 -46q123 0 187.5 78t64.5 282q0 180 -64.5 282.5 t-175.5 102.5q-113 0 -182.5 -88t-69.5 -268z" />
<glyph unicode="&#xbb;" horiz-adv-x="1349" d="M135 190l369 424l-369 439l92 67l471 -440v-135l-471 -428zM702 190l338 424l-338 439l93 67l440 -440v-135l-440 -428z" />
<glyph unicode="&#xbc;" horiz-adv-x="2385" d="M182 1413q102 31 184.5 67t159.5 95h4l86 -16v-926l226 -21v-84h-633v84l262 19v766q-92 -37 -268 -76zM733 -135l760 1804l121 -14l-756 -1800zM1423 270l465 815h135l29 -32l-414 -676l-67 -92l414 18l14 283l129 10v-287l186 10v-118h-186v-201h-143v201h-508z" />
<glyph unicode="&#xbd;" horiz-adv-x="2373" d="M182 1413q102 31 184.5 67t159.5 95h4l86 -16v-926l226 -21v-84h-633v84l262 19v766q-92 -37 -268 -76zM733 -135l760 1804l121 -14l-756 -1800zM1495 836q43 61 145.5 116.5t219.5 55.5q160 0 247.5 -79t87.5 -206q0 -96 -74.5 -215t-195.5 -232.5t-256 -199.5l443 26 l73 158l88 -18l-51 -262h-684l-31 79q97 62 217.5 162.5t218 224t97.5 234.5q0 96 -54.5 154.5t-154.5 58.5q-86 0 -163 -37t-118 -82z" />
<glyph unicode="&#xbe;" horiz-adv-x="2398" d="M152 1458q51 51 145 80t209 29q137 0 220 -64.5t83 -163.5q0 -84 -51 -152.5t-178 -119.5l36 2q100 0 165 -36t93.5 -88t28.5 -105q0 -137 -120.5 -224.5t-340.5 -87.5q-63 0 -138 14.5t-138 43.5v96q137 -51 246 -51q168 0 252 51t84 160q0 47 -32 89t-89.5 66.5 t-132.5 20.5q-12 -6 -121 -45l-31 92q59 12 145 53q166 84 166 201q0 68 -45 101.5t-143 33.5q-76 0 -147.5 -21.5t-114.5 -56.5zM745 -135l760 1804l121 -14l-756 -1800zM1435 270l465 815h135l29 -32l-414 -676l-67 -92l414 18l14 283l129 10v-287l186 10v-118h-186v-201 h-143v201h-508z" />
<glyph unicode="&#xbf;" horiz-adv-x="974" d="M82 72q0 92 39 165.5t93 125t140 118.5q68 53 103 86t53 68v10q0 188 -8 295h125q47 -117 57 -287q0 -86 -64.5 -146.5t-189.5 -133.5q-92 -53 -143 -94t-70 -91v-116q0 -98 60.5 -186.5t171 -142.5t258.5 -54q92 0 153 26l27 -106q-33 -18 -95.5 -30.5t-121.5 -12.5 q-299 0 -443.5 139t-144.5 367zM487 1309q0 57 41 95t97 38q47 0 80.5 -31t33.5 -82q0 -55 -42 -94t-93 -39q-57 0 -87 32t-30 81z" />
<glyph unicode="&#xc0;" d="M-23 0v88l132 18l507 1430h168l514 -1430l134 -18v-88h-500v88l180 18l-108 326h-639l-109 -323l182 -21v-88h-461zM399 539h568l-232 682l-57 194l-55 -201zM422 1917l141 90l278 -313l-86 -52q-79 41 -181.5 124t-151.5 151z" />
<glyph unicode="&#xc1;" d="M-23 0v88l132 18l507 1430h168l514 -1430l134 -18v-88h-500v88l180 18l-108 326h-639l-109 -323l182 -21v-88h-461zM399 539h568l-232 682l-57 194l-55 -201zM551 1694l278 313l141 -90q-49 -68 -151.5 -151t-181.5 -124z" />
<glyph unicode="&#xc2;" d="M-23 0v88l132 18l507 1430h168l514 -1430l134 -18v-88h-500v88l180 18l-108 326h-639l-109 -323l182 -21v-88h-461zM358 1716l262 297h154l264 -295l-74 -45l-266 217l-272 -217zM399 539h568l-232 682l-57 194l-55 -201z" />
<glyph unicode="&#xc3;" d="M-23 0v88l132 18l507 1430h168l514 -1430l134 -18v-88h-500v88l180 18l-108 326h-639l-109 -323l182 -21v-88h-461zM338 1753q68 197 223 197q61 0 102 -23.5t90 -68.5q31 -31 55.5 -47.5t53.5 -16.5q45 0 72.5 36t46.5 89l86 -45q-31 -92 -76 -144.5t-135 -52.5 q-62 0 -102 22.5t-93 65.5q-35 31 -60.5 46.5t-56.5 15.5q-53 0 -76.5 -31t-43.5 -88zM399 539h568l-232 682l-57 194l-55 -201z" />
<glyph unicode="&#xc4;" d="M-23 0v88l132 18l507 1430h168l514 -1430l134 -18v-88h-500v88l180 18l-108 326h-639l-109 -323l182 -21v-88h-461zM338 1808q0 57 30.5 97.5t87.5 40.5h2q49 0 79 -37t30 -84q0 -57 -33 -95t-92 -38h-2q-47 0 -74.5 33.5t-27.5 82.5zM399 539h568l-232 682l-57 194 l-55 -201zM825 1808q0 57 30.5 97.5t88.5 40.5h2q49 0 77.5 -36t28.5 -85q0 -57 -32.5 -95t-92.5 -38q-47 0 -74.5 33.5t-27.5 82.5z" />
<glyph unicode="&#xc5;" d="M-23 0v88l132 18l501 1416q-115 18 -175 81.5t-60 155.5q0 121 99 187.5t233 66.5q147 0 229 -66.5t82 -179.5q0 -98 -63.5 -160.5t-166.5 -82.5l510 -1418l134 -18v-88h-500v88l180 18l-108 326h-639l-109 -323l182 -21v-88h-461zM399 539h568l-232 682l-57 194 l-55 -201zM502 1769q0 -73 50 -123.5t146 -50.5t145.5 41t49.5 119q0 80 -47 128t-144 48q-96 0 -148 -41t-52 -121z" />
<glyph unicode="&#xc6;" horiz-adv-x="1865" d="M-184 0v86l149 20l590 1309l-279 23v84h1381l35 -308h-99l-61 207l-543 9v-599l371 7l24 170h105v-453h-105l-24 176l-371 4v-635l627 21l119 256l98 -27l-78 -350h-1114v86l180 20v345h-553l-143 -345l160 -20v-86h-469zM313 557h508v866h-141l-115 -262z" />
<glyph unicode="&#xc7;" horiz-adv-x="1329" d="M74 768q0 223 96 399t262 273.5t371 97.5q104 0 201.5 -16.5t157 -30.5t73.5 -18l-16 -334h-107l-45 237q-31 27 -110.5 45.5t-194.5 18.5q-141 0 -254 -77t-177.5 -224.5t-64.5 -352.5q0 -193 56.5 -354.5t171 -258.5t282.5 -97q117 0 182.5 19.5t110.5 56.5l82 192 l100 -14l-51 -275q-49 -2 -119 -26q-74 -25 -141.5 -38.5t-167.5 -13.5q-219 0 -376.5 98.5t-239.5 276.5t-82 416zM522 -455l2 121q20 -6 48 -11t46 -5q82 0 119 28.5t37 116.5q0 55 -23.5 113.5t-46.5 91.5l47 12l37 -12q43 -39 86 -119t43 -162q0 -109 -62.5 -154.5 t-187.5 -45.5q-34 0 -75 8t-70 18z" />
<glyph unicode="&#xc8;" horiz-adv-x="1329" d="M102 0v88l177 18v1305l-173 23v88h1014l29 -301h-98l-56 196l-549 10v-596l377 7l27 170h102v-453h-102l-27 174l-377 6v-631l627 17l105 256l98 -31l-64 -346h-1110zM424 1917l141 90l278 -313l-86 -52q-79 41 -181.5 124t-151.5 151z" />
<glyph unicode="&#xc9;" horiz-adv-x="1329" d="M102 0v88l177 18v1305l-173 23v88h1014l29 -301h-98l-56 196l-549 10v-596l377 7l27 170h102v-453h-102l-27 174l-377 6v-631l627 17l105 256l98 -31l-64 -346h-1110zM553 1694l278 313l141 -90q-49 -68 -151.5 -151t-181.5 -124z" />
<glyph unicode="&#xca;" horiz-adv-x="1329" d="M102 0v88l177 18v1305l-173 23v88h1014l29 -301h-98l-56 196l-549 10v-596l377 7l27 170h102v-453h-102l-27 174l-377 6v-631l627 17l105 256l98 -31l-64 -346h-1110zM360 1716l262 297h154l264 -295l-74 -45l-266 217l-272 -217z" />
<glyph unicode="&#xcb;" horiz-adv-x="1329" d="M102 0v88l177 18v1305l-173 23v88h1014l29 -301h-98l-56 196l-549 10v-596l377 7l27 170h102v-453h-102l-27 174l-377 6v-631l627 17l105 256l98 -31l-64 -346h-1110zM340 1808q0 57 30.5 97.5t87.5 40.5h2q49 0 79 -37t30 -84q0 -57 -33 -95t-92 -38h-2 q-47 0 -74.5 33.5t-27.5 82.5zM827 1808q0 57 30.5 97.5t88.5 40.5h2q49 0 77.5 -36t28.5 -85q0 -57 -32.5 -95t-92.5 -38q-47 0 -74.5 33.5t-27.5 82.5z" />
<glyph unicode="&#xcc;" horiz-adv-x="813" d="M123 0v88l199 18v1305l-199 23v88h567v-88l-198 -23v-1305l198 -20v-86h-567zM134 1917l141 90l278 -313l-86 -52q-79 41 -181.5 124t-151.5 151z" />
<glyph unicode="&#xcd;" horiz-adv-x="813" d="M123 0v88l199 18v1305l-199 23v88h567v-88l-198 -23v-1305l198 -20v-86h-567zM263 1694l278 313l141 -90q-49 -68 -151.5 -151t-181.5 -124z" />
<glyph unicode="&#xce;" horiz-adv-x="813" d="M70 1716l262 297h154l264 -295l-74 -45l-266 217l-272 -217zM123 0v88l199 18v1305l-199 23v88h567v-88l-198 -23v-1305l198 -20v-86h-567z" />
<glyph unicode="&#xcf;" horiz-adv-x="813" d="M50 1808q0 57 30.5 97.5t87.5 40.5h2q49 0 79 -37t30 -84q0 -57 -33 -95t-92 -38h-2q-47 0 -74.5 33.5t-27.5 82.5zM123 0v88l199 18v1305l-199 23v88h567v-88l-198 -23v-1305l198 -20v-86h-567zM537 1808q0 57 30.5 97.5t88.5 40.5h2q49 0 77.5 -36t28.5 -85 q0 -57 -32.5 -95t-92.5 -38q-47 0 -74.5 33.5t-27.5 82.5z" />
<glyph unicode="&#xd0;" horiz-adv-x="1548" d="M102 0v88l177 18v642h-158v94h158v569l-164 23v88h247q63 0 183 8q119 8 180 8q383 0 566.5 -193.5t183.5 -537.5q0 -244 -96.5 -430.5t-267.5 -289.5t-392 -103q-47 0 -158 8q-127 8 -196 8h-263zM446 100q84 -16 207 -16h70q168 2 297 82t201.5 233.5t72.5 370.5 q0 670 -622 670q-68 0 -154 -8q-53 -4 -72 -5v-585h385v-94h-385v-648z" />
<glyph unicode="&#xd1;" horiz-adv-x="1632" d="M115 0v88l164 21v1302l-164 23v88h329l725 -1051l117 -205v1145l-180 23v88h467v-88l-168 -23v-1411h-107l-733 1055l-168 272v-1221l187 -18v-88h-469zM480 1753q68 197 223 197q61 0 102 -23.5t90 -68.5q31 -31 55.5 -47.5t53.5 -16.5q45 0 72.5 36t46.5 89l86 -45 q-31 -92 -76 -144.5t-135 -52.5q-62 0 -102 22.5t-93 65.5q-35 31 -60.5 46.5t-56.5 15.5q-53 0 -76.5 -31t-43.5 -88z" />
<glyph unicode="&#xd2;" horiz-adv-x="1472" d="M76 750q0 236 90 414.5t245.5 276t346.5 97.5q203 0 347 -94t219 -266t75 -404q0 -238 -92.5 -419t-250 -279.5t-349.5 -98.5q-199 0 -341.5 97.5t-216 271.5t-73.5 404zM262 750q0 -197 55.5 -350.5t162 -239.5t253.5 -86q143 0 250 78.5t166 236.5t59 385 q0 199 -55 349.5t-160.5 234.5t-253.5 84q-219 0 -348 -177.5t-129 -514.5zM463 1917l141 90l278 -313l-86 -52q-79 41 -181.5 124t-151.5 151z" />
<glyph unicode="&#xd3;" horiz-adv-x="1472" d="M76 750q0 236 90 414.5t245.5 276t346.5 97.5q203 0 347 -94t219 -266t75 -404q0 -238 -92.5 -419t-250 -279.5t-349.5 -98.5q-199 0 -341.5 97.5t-216 271.5t-73.5 404zM262 750q0 -197 55.5 -350.5t162 -239.5t253.5 -86q143 0 250 78.5t166 236.5t59 385 q0 199 -55 349.5t-160.5 234.5t-253.5 84q-219 0 -348 -177.5t-129 -514.5zM592 1694l278 313l141 -90q-49 -68 -151.5 -151t-181.5 -124z" />
<glyph unicode="&#xd4;" horiz-adv-x="1472" d="M76 750q0 236 90 414.5t245.5 276t346.5 97.5q203 0 347 -94t219 -266t75 -404q0 -238 -92.5 -419t-250 -279.5t-349.5 -98.5q-199 0 -341.5 97.5t-216 271.5t-73.5 404zM262 750q0 -197 55.5 -350.5t162 -239.5t253.5 -86q143 0 250 78.5t166 236.5t59 385 q0 199 -55 349.5t-160.5 234.5t-253.5 84q-219 0 -348 -177.5t-129 -514.5zM399 1716l262 297h154l264 -295l-74 -45l-266 217l-272 -217z" />
<glyph unicode="&#xd5;" horiz-adv-x="1472" d="M76 750q0 236 90 414.5t245.5 276t346.5 97.5q203 0 347 -94t219 -266t75 -404q0 -238 -92.5 -419t-250 -279.5t-349.5 -98.5q-199 0 -341.5 97.5t-216 271.5t-73.5 404zM262 750q0 -197 55.5 -350.5t162 -239.5t253.5 -86q143 0 250 78.5t166 236.5t59 385 q0 199 -55 349.5t-160.5 234.5t-253.5 84q-219 0 -348 -177.5t-129 -514.5zM379 1753q68 197 223 197q61 0 102 -23.5t90 -68.5q31 -31 55.5 -47.5t53.5 -16.5q45 0 72.5 36t46.5 89l86 -45q-31 -92 -76 -144.5t-135 -52.5q-62 0 -102 22.5t-93 65.5q-35 31 -60.5 46.5 t-56.5 15.5q-53 0 -76.5 -31t-43.5 -88z" />
<glyph unicode="&#xd6;" horiz-adv-x="1472" d="M76 750q0 236 90 414.5t245.5 276t346.5 97.5q203 0 347 -94t219 -266t75 -404q0 -238 -92.5 -419t-250 -279.5t-349.5 -98.5q-199 0 -341.5 97.5t-216 271.5t-73.5 404zM262 750q0 -197 55.5 -350.5t162 -239.5t253.5 -86q143 0 250 78.5t166 236.5t59 385 q0 199 -55 349.5t-160.5 234.5t-253.5 84q-219 0 -348 -177.5t-129 -514.5zM379 1808q0 57 30.5 97.5t87.5 40.5h2q49 0 79 -37t30 -84q0 -57 -33 -95t-92 -38h-2q-47 0 -74.5 33.5t-27.5 82.5zM866 1808q0 57 30.5 97.5t88.5 40.5h2q49 0 77.5 -36t28.5 -85 q0 -57 -32.5 -95t-92.5 -38q-47 0 -74.5 33.5t-27.5 82.5z" />
<glyph unicode="&#xd7;" horiz-adv-x="1239" d="M184 279l351 337l-351 338l101 105l336 -357l333 357l101 -107l-348 -336l348 -337l-101 -105l-333 356l-336 -356z" />
<glyph unicode="&#xd8;" horiz-adv-x="1474" d="M76 750q0 236 90 414.5t245.5 276t346.5 97.5q119 0 223 -35l80 203l78 -29l-84 -204q168 -84 256 -265.5t88 -433.5q0 -236 -89 -415t-243 -278t-344 -104q-119 -2 -229 33l-91 -213l-77 27l94 219q-166 86 -255 271.5t-89 435.5zM262 750q0 -195 54.5 -346.5 t156.5 -235.5l461 1229q-86 45 -193 45q-221 0 -350 -176t-129 -516zM541 121q88 -47 194 -47q141 0 249 78.5t167 236.5t59 385q0 193 -53 342.5t-153 233.5z" />
<glyph unicode="&#xd9;" horiz-adv-x="1511" d="M55 1434v88h502v-88l-176 -23v-778q0 -299 107.5 -424t304.5 -125t297 135t100 397v793l-170 25v88h455v-88l-156 -23v-786q0 -319 -148.5 -480t-394.5 -161q-295 0 -431 162.5t-136 504.5v760zM514 1917l141 90l278 -313l-86 -52q-79 41 -181.5 124t-151.5 151z" />
<glyph unicode="&#xda;" horiz-adv-x="1511" d="M55 1434v88h502v-88l-176 -23v-778q0 -299 107.5 -424t304.5 -125t297 135t100 397v793l-170 25v88h455v-88l-156 -23v-786q0 -319 -148.5 -480t-394.5 -161q-295 0 -431 162.5t-136 504.5v760zM643 1694l278 313l141 -90q-49 -68 -151.5 -151t-181.5 -124z" />
<glyph unicode="&#xdb;" horiz-adv-x="1511" d="M55 1434v88h502v-88l-176 -23v-778q0 -299 107.5 -424t304.5 -125t297 135t100 397v793l-170 25v88h455v-88l-156 -23v-786q0 -319 -148.5 -480t-394.5 -161q-295 0 -431 162.5t-136 504.5v760zM450 1716l262 297h154l264 -295l-74 -45l-266 217l-272 -217z" />
<glyph unicode="&#xdc;" horiz-adv-x="1511" d="M55 1434v88h502v-88l-176 -23v-778q0 -299 107.5 -424t304.5 -125t297 135t100 397v793l-170 25v88h455v-88l-156 -23v-786q0 -319 -148.5 -480t-394.5 -161q-295 0 -431 162.5t-136 504.5v760zM430 1808q0 57 30.5 97.5t87.5 40.5h2q49 0 79 -37t30 -84q0 -57 -33 -95 t-92 -38h-2q-47 0 -74.5 33.5t-27.5 82.5zM917 1808q0 57 30.5 97.5t88.5 40.5h2q49 0 77.5 -36t28.5 -85q0 -57 -32.5 -95t-92.5 -38q-47 0 -74.5 33.5t-27.5 82.5z" />
<glyph unicode="&#xdd;" horiz-adv-x="1310" d="M-18 1434v88h489v-88l-172 -23l309 -580l74 -163l80 163l297 580l-172 23v88h444v-88l-135 -23l-442 -823v-479l233 -21v-88h-633v88l228 18v480l-473 823zM510 1694l278 313l141 -90q-49 -68 -151.5 -151t-181.5 -124z" />
<glyph unicode="&#xde;" horiz-adv-x="1300" d="M102 0v86l174 20v1307l-170 23v88h521v-88l-185 -23v-248l68 6q190 14 258 15q223 0 346 -101.5t123 -300.5q0 -225 -141.5 -336.5t-395.5 -111.5q-170 0 -258 8v-238l224 -20v-86h-564zM442 436q63 -8 185 -8h67q164 0 260.5 82t96.5 264q0 154 -85 233.5t-266 79.5 q-94 0 -258 -20v-631z" />
<glyph unicode="&#xdf;" horiz-adv-x="1275" d="M53 0v88l146 16v844q0 207 76.5 355.5t204.5 224.5t278 76q145 0 241.5 -69t96.5 -204q0 -86 -35 -145.5t-100 -128.5q-49 -51 -73 -87t-24 -81q0 -55 37 -100.5t113 -106.5q68 -59 110.5 -104.5t73.5 -107.5t31 -140q0 -172 -126 -262.5t-325 -90.5q-39 0 -89 7.5 t-83 15.5v135q92 -37 201 -37q125 0 184.5 53.5t59.5 139.5q0 80 -43 139t-127 133q-88 78 -132 139.5t-44 147.5q0 45 24.5 86t73.5 98q59 72 90 126t31 122q0 215 -213 215q-160 0 -252 -132t-92 -384v-981h-314z" />
<glyph unicode="&#xe0;" horiz-adv-x="1140" d="M104 299q0 199 197 288t490 95v63q0 104 -21.5 165t-75 88.5t-149.5 27.5q-104 0 -189.5 -31.5t-165.5 -76.5l-45 90q23 20 94.5 57t164 65.5t178.5 28.5q139 0 220 -39t116.5 -125t35.5 -231v-676h127v-76q-113 -31 -190 -30q-49 0 -67.5 15t-18.5 71v75 q-74 -66 -161 -116t-198 -50q-147 0 -244.5 82t-97.5 240zM225 1688l129 110l320 -393l-60 -55h-2q-55 22 -201.5 150t-185.5 188zM287 319q0 -117 59.5 -169t161.5 -52q57 0 137 37t146 88v363q-248 -2 -376 -74t-128 -193z" />
<glyph unicode="&#xe1;" horiz-adv-x="1140" d="M104 299q0 199 197 288t490 95v63q0 104 -21.5 165t-75 88.5t-149.5 27.5q-104 0 -189.5 -31.5t-165.5 -76.5l-45 90q23 20 94.5 57t164 65.5t178.5 28.5q139 0 220 -39t116.5 -125t35.5 -231v-676h127v-76q-113 -31 -190 -30q-49 0 -67.5 15t-18.5 71v75 q-74 -66 -161 -116t-198 -50q-147 0 -244.5 82t-97.5 240zM287 319q0 -117 59.5 -169t161.5 -52q57 0 137 37t146 88v363q-248 -2 -376 -74t-128 -193zM414 1405l317 395l139 -112q-41 -61 -181 -183.5t-212 -154.5z" />
<glyph unicode="&#xe2;" horiz-adv-x="1140" d="M104 299q0 199 197 288t490 95v63q0 104 -21.5 165t-75 88.5t-149.5 27.5q-104 0 -189.5 -31.5t-165.5 -76.5l-45 90q23 20 94.5 57t164 65.5t178.5 28.5q139 0 220 -39t116.5 -125t35.5 -231v-676h127v-76q-113 -31 -190 -30q-49 0 -67.5 15t-18.5 71v75 q-74 -66 -161 -116t-198 -50q-147 0 -244.5 82t-97.5 240zM193 1356l284 401h154l276 -399l-71 -43l-283 309l-295 -309zM287 319q0 -117 59.5 -169t161.5 -52q57 0 137 37t146 88v363q-248 -2 -376 -74t-128 -193z" />
<glyph unicode="&#xe3;" horiz-adv-x="1140" d="M104 299q0 199 197 288t490 95v63q0 104 -21.5 165t-75 88.5t-149.5 27.5q-104 0 -189.5 -31.5t-165.5 -76.5l-45 90q23 20 94.5 57t164 65.5t178.5 28.5q139 0 220 -39t116.5 -125t35.5 -231v-676h127v-76q-113 -31 -190 -30q-49 0 -67.5 15t-18.5 71v75 q-74 -66 -161 -116t-198 -50q-147 0 -244.5 82t-97.5 240zM174 1432q21 81 79 141.5t157 60.5q61 0 102 -24.5t94 -73.5q35 -35 59.5 -51.5t53.5 -16.5q57 0 90 43t39 84l94 -43q-63 -207 -231 -206q-59 0 -99.5 24.5t-89.5 71.5q-39 37 -63.5 53t-55.5 16 q-57 0 -85.5 -31.5t-42 -60t-17.5 -35.5zM287 319q0 -117 59.5 -169t161.5 -52q57 0 137 37t146 88v363q-248 -2 -376 -74t-128 -193z" />
<glyph unicode="&#xe4;" horiz-adv-x="1140" d="M104 299q0 199 197 288t490 95v63q0 104 -21.5 165t-75 88.5t-149.5 27.5q-104 0 -189.5 -31.5t-165.5 -76.5l-45 90q23 20 94.5 57t164 65.5t178.5 28.5q139 0 220 -39t116.5 -125t35.5 -231v-676h127v-76q-113 -31 -190 -30q-49 0 -67.5 15t-18.5 71v75 q-74 -66 -161 -116t-198 -50q-147 0 -244.5 82t-97.5 240zM215 1473q0 55 32 95t89 40q49 0 78.5 -36t29.5 -83q0 -57 -32.5 -95t-91.5 -38q-48 0 -76.5 32.5t-28.5 84.5zM287 319q0 -117 59.5 -169t161.5 -52q57 0 137 37t146 88v363q-248 -2 -376 -74t-128 -193zM662 1473 q0 55 31.5 95t88.5 40q49 0 79 -36t30 -83q0 -57 -33 -95t-94 -38q-45 0 -73.5 33.5t-28.5 83.5z" />
<glyph unicode="&#xe5;" horiz-adv-x="1140" d="M104 299q0 199 197 288t490 95v63q0 104 -21.5 165t-75 88.5t-149.5 27.5q-104 0 -189.5 -31.5t-165.5 -76.5l-45 90q23 20 94.5 57t164 65.5t178.5 28.5q139 0 220 -39t116.5 -125t35.5 -231v-676h127v-76q-113 -31 -190 -30q-49 0 -67.5 15t-18.5 71v75 q-74 -66 -161 -116t-198 -50q-147 0 -244.5 82t-97.5 240zM231 1595q0 82 48.5 143.5t125 93.5t160.5 32q145 0 227.5 -76t82.5 -195q-2 -129 -95.5 -201.5t-228.5 -72.5q-156 0 -238 77t-82 199zM287 319q0 -117 59.5 -169t161.5 -52q57 0 137 37t146 88v363 q-248 -2 -376 -74t-128 -193zM356 1599q0 -86 50.5 -143t148.5 -57q96 0 145.5 48t49.5 138q0 86 -48.5 141.5t-144.5 55.5q-92 0 -146.5 -49.5t-54.5 -133.5z" />
<glyph unicode="&#xe6;" horiz-adv-x="1779" d="M96 299q0 197 196.5 287t479.5 96q0 154 -16.5 224.5t-65.5 98t-153 27.5q-102 0 -190.5 -32.5t-182.5 -84.5l-43 86q27 27 103.5 65t170.5 65.5t180 27.5q141 0 222.5 -39t115.5 -127q72 84 170.5 129t212.5 45q182 0 283.5 -104.5t110.5 -300.5q0 -127 -13 -180h-729 q0 -215 97.5 -351.5t273.5 -136.5q86 0 176 31t137 74l33 -76q-59 -61 -171 -103.5t-226 -42.5q-141 0 -244.5 58.5t-165.5 167.5q-63 -88 -168.5 -157t-249.5 -69q-147 0 -245.5 82t-98.5 240zM279 319q0 -117 60 -169t161 -52q100 0 189 57.5t130 129.5q-47 127 -47 309 q-238 -2 -365.5 -78t-127.5 -197zM950 678h555q4 57 4 90q0 135 -61.5 215t-192.5 80q-281 0 -305 -385z" />
<glyph unicode="&#xe7;" horiz-adv-x="1042" d="M70 561q0 166 64.5 304.5t192.5 220t312 81.5q80 0 155.5 -19.5t131.5 -41.5l-8 -293h-103l-43 197q-12 61 -176 61q-160 0 -255 -123t-95 -336q0 -254 102.5 -385t265.5 -131q86 0 167 29t134 65l33 -67q-57 -57 -159.5 -100t-202.5 -46q41 -49 73.5 -117.5t32.5 -138.5 q0 -109 -63.5 -155.5t-186.5 -46.5q-35 0 -75.5 8t-69.5 18l2 121q20 -6 48 -11t46 -5q82 0 119 28.5t37 116.5q0 49 -18.5 100.5t-41.5 88.5q-201 31 -310 189.5t-109 387.5z" />
<glyph unicode="&#xe8;" horiz-adv-x="1105" d="M96 573q0 174 67.5 309.5t187.5 210t270 74.5q182 0 283.5 -104.5t109.5 -300.5q0 -127 -13 -180h-729q0 -215 97.5 -351.5t273.5 -136.5q86 0 176 31t139 74l33 -76q-59 -61 -172.5 -103.5t-228.5 -42.5q-238 0 -366 163t-128 433zM268 1688l129 110l320 -393l-60 -55 h-2q-55 22 -201.5 150t-185.5 188zM274 678h555q6 43 7 90q-2 135 -64.5 215t-191.5 80q-281 0 -306 -385z" />
<glyph unicode="&#xe9;" horiz-adv-x="1105" d="M96 573q0 174 67.5 309.5t187.5 210t270 74.5q182 0 283.5 -104.5t109.5 -300.5q0 -127 -13 -180h-729q0 -215 97.5 -351.5t273.5 -136.5q86 0 176 31t139 74l33 -76q-59 -61 -172.5 -103.5t-228.5 -42.5q-238 0 -366 163t-128 433zM274 678h555q6 43 7 90 q-2 135 -64.5 215t-191.5 80q-281 0 -306 -385zM457 1405l317 395l139 -112q-41 -61 -181 -183.5t-212 -154.5z" />
<glyph unicode="&#xea;" horiz-adv-x="1105" d="M96 573q0 174 67.5 309.5t187.5 210t270 74.5q182 0 283.5 -104.5t109.5 -300.5q0 -127 -13 -180h-729q0 -215 97.5 -351.5t273.5 -136.5q86 0 176 31t139 74l33 -76q-59 -61 -172.5 -103.5t-228.5 -42.5q-238 0 -366 163t-128 433zM236 1356l284 401h154l276 -399 l-71 -43l-283 309l-295 -309zM274 678h555q6 43 7 90q-2 135 -64.5 215t-191.5 80q-281 0 -306 -385z" />
<glyph unicode="&#xeb;" horiz-adv-x="1105" d="M96 573q0 174 67.5 309.5t187.5 210t270 74.5q182 0 283.5 -104.5t109.5 -300.5q0 -127 -13 -180h-729q0 -215 97.5 -351.5t273.5 -136.5q86 0 176 31t139 74l33 -76q-59 -61 -172.5 -103.5t-228.5 -42.5q-238 0 -366 163t-128 433zM258 1473q0 55 32 95t89 40 q49 0 78.5 -36t29.5 -83q0 -57 -32.5 -95t-91.5 -38q-48 0 -76.5 32.5t-28.5 84.5zM274 678h555q6 43 7 90q-2 135 -64.5 215t-191.5 80q-281 0 -306 -385zM705 1473q0 55 31.5 95t88.5 40q49 0 79 -36t30 -83q0 -57 -33 -95t-94 -38q-45 0 -73.5 33.5t-28.5 83.5z" />
<glyph unicode="&#xec;" horiz-adv-x="663" d="M4 1688l129 110l320 -393l-60 -55h-2q-55 22 -201.5 150t-185.5 188zM86 0v88l180 16v897l-160 35v92l281 33h4l41 -33v-1026l178 -14v-88h-524z" />
<glyph unicode="&#xed;" horiz-adv-x="663" d="M86 0v88l180 16v897l-160 35v92l281 33h4l41 -33v-1026l178 -14v-88h-524zM193 1405l317 395l139 -112q-41 -61 -181 -183.5t-212 -154.5z" />
<glyph unicode="&#xee;" horiz-adv-x="663" d="M-28 1356l284 401h154l276 -399l-71 -43l-283 309l-295 -309zM86 0v88l180 16v897l-160 35v92l281 33h4l41 -33v-1026l178 -14v-88h-524z" />
<glyph unicode="&#xef;" horiz-adv-x="663" d="M-6 1473q0 55 32 95t89 40q49 0 78.5 -36t29.5 -83q0 -57 -32.5 -95t-91.5 -38q-48 0 -76.5 32.5t-28.5 84.5zM86 0v88l180 16v897l-160 35v92l281 33h4l41 -33v-1026l178 -14v-88h-524zM441 1473q0 55 31.5 95t88.5 40q49 0 79 -36t30 -83q0 -57 -33 -95t-94 -38 q-45 0 -73.5 33.5t-28.5 83.5z" />
<glyph unicode="&#xf0;" horiz-adv-x="1171" d="M86 530q0 203 72.5 347.5t191.5 217t260 72.5q119 0 209 -45q-51 121 -142 233.5t-210 188.5l-148 -176l-81 59l151 172q-51 35 -115.5 66t-109.5 43l35 84q78 -25 135 -50.5t127 -62.5l133 158l76 -63l-125 -146q256 -172 399 -414.5t143 -551.5q0 -180 -51 -336 t-162.5 -252.5t-281.5 -96.5q-254 0 -380 151t-126 402zM268 543q0 -205 79 -336t249 -131q158 0 233.5 148.5t75.5 424.5q0 178 -45 320q-27 41 -93.5 74.5t-160.5 33.5q-100 0 -177 -64.5t-119 -185t-42 -284.5z" />
<glyph unicode="&#xf1;" horiz-adv-x="1337" d="M63 1036v92l261 33h6l39 -33v-90l-2 -51q76 66 200.5 121t231.5 55q131 0 201.5 -50t98 -153.5t27.5 -277.5v-580l154 -14v-88h-457v88l138 14v582q0 129 -17.5 203t-68 111.5t-146.5 37.5q-82 0 -177 -41t-165 -96v-795l150 -16v-88h-453v88l137 16v897zM258 1432 q21 81 79 141.5t157 60.5q61 0 102 -24.5t94 -73.5q35 -35 59.5 -51.5t53.5 -16.5q57 0 90 43t39 84l94 -43q-63 -207 -231 -206q-59 0 -99.5 24.5t-89.5 71.5q-39 37 -63.5 53t-55.5 16q-57 0 -85.5 -31.5t-42 -60t-17.5 -35.5z" />
<glyph unicode="&#xf2;" horiz-adv-x="1218" d="M92 575q0 179 75 314t196.5 206.5t254.5 71.5q258 0 382 -168t124 -430q0 -178 -74.5 -313t-196.5 -207t-255 -72q-258 0 -382 168t-124 430zM279 588q0 -223 80.5 -363.5t248.5 -140.5q158 0 244 121t86 352q0 221 -80 362.5t-248 141.5q-158 0 -244.5 -121t-86.5 -352z M282 1688l129 110l320 -393l-60 -55h-2q-55 22 -201.5 150t-185.5 188z" />
<glyph unicode="&#xf3;" horiz-adv-x="1218" d="M92 575q0 179 75 314t196.5 206.5t254.5 71.5q258 0 382 -168t124 -430q0 -178 -74.5 -313t-196.5 -207t-255 -72q-258 0 -382 168t-124 430zM279 588q0 -223 80.5 -363.5t248.5 -140.5q158 0 244 121t86 352q0 221 -80 362.5t-248 141.5q-158 0 -244.5 -121t-86.5 -352z M471 1405l317 395l139 -112q-41 -61 -181 -183.5t-212 -154.5z" />
<glyph unicode="&#xf4;" horiz-adv-x="1218" d="M92 575q0 179 75 314t196.5 206.5t254.5 71.5q258 0 382 -168t124 -430q0 -178 -74.5 -313t-196.5 -207t-255 -72q-258 0 -382 168t-124 430zM250 1356l284 401h154l276 -399l-71 -43l-283 309l-295 -309zM279 588q0 -223 80.5 -363.5t248.5 -140.5q158 0 244 121t86 352 q0 221 -80 362.5t-248 141.5q-158 0 -244.5 -121t-86.5 -352z" />
<glyph unicode="&#xf5;" horiz-adv-x="1218" d="M92 575q0 179 75 314t196.5 206.5t254.5 71.5q258 0 382 -168t124 -430q0 -178 -74.5 -313t-196.5 -207t-255 -72q-258 0 -382 168t-124 430zM231 1432q21 81 79 141.5t157 60.5q61 0 102 -24.5t94 -73.5q35 -35 59.5 -51.5t53.5 -16.5q57 0 90 43t39 84l94 -43 q-63 -207 -231 -206q-59 0 -99.5 24.5t-89.5 71.5q-39 37 -63.5 53t-55.5 16q-57 0 -85.5 -31.5t-42 -60t-17.5 -35.5zM279 588q0 -223 80.5 -363.5t248.5 -140.5q158 0 244 121t86 352q0 221 -80 362.5t-248 141.5q-158 0 -244.5 -121t-86.5 -352z" />
<glyph unicode="&#xf6;" horiz-adv-x="1218" d="M92 575q0 179 75 314t196.5 206.5t254.5 71.5q258 0 382 -168t124 -430q0 -178 -74.5 -313t-196.5 -207t-255 -72q-258 0 -382 168t-124 430zM272 1473q0 55 32 95t89 40q49 0 78.5 -36t29.5 -83q0 -57 -32.5 -95t-91.5 -38q-48 0 -76.5 32.5t-28.5 84.5zM279 588 q0 -223 80.5 -363.5t248.5 -140.5q158 0 244 121t86 352q0 221 -80 362.5t-248 141.5q-158 0 -244.5 -121t-86.5 -352zM719 1473q0 55 31.5 95t88.5 40q49 0 79 -36t30 -83q0 -57 -33 -95t-94 -38q-45 0 -73.5 33.5t-28.5 83.5z" />
<glyph unicode="&#xf7;" horiz-adv-x="1363" d="M219 594v125h926v-125h-926zM557 233q0 56 42 95t95 39q57 0 86 -32t29 -81q0 -57 -41 -95t-96 -38q-47 0 -81 30.5t-34 81.5zM578 1059q0 53 42 93t93 40q57 0 85.5 -33t28.5 -82q0 -57 -39.5 -95t-95.5 -38q-47 0 -80.5 32t-33.5 83z" />
<glyph unicode="&#xf8;" horiz-adv-x="1218" d="M92 575q0 179 75 314t196.5 206.5t254.5 71.5q82 0 164 -20l70 184l70 -18l-68 -195q137 -68 203.5 -213t66.5 -336q0 -178 -74.5 -313t-196.5 -207t-255 -72q-80 0 -162 21l-74 -195l-75 21l78 201q-139 68 -206 213t-67 337zM279 588q0 -146 33.5 -258.5t105.5 -175.5 l321 878q-57 29 -129 29q-158 0 -244.5 -121t-86.5 -352zM479 113q57 -29 129 -29q158 0 244 121t86 352q0 143 -33 255t-102 177z" />
<glyph unicode="&#xf9;" horiz-adv-x="1286" d="M80 1059v76l248 26h2l37 -24v-691q0 -129 18 -201.5t67.5 -107.5t143.5 -35q90 0 172 39t141 92v791l-155 35v76l272 26h2l47 -24v-1047h127l-2 -78q-10 -2 -59 -16t-111 -14q-53 0 -77.5 18t-24.5 68v79q-76 -68 -178.5 -119t-204.5 -51q-186 0 -265 104.5t-79 340.5 v602zM286 1688l129 110l320 -393l-60 -55h-2q-55 22 -201.5 150t-185.5 188z" />
<glyph unicode="&#xfa;" horiz-adv-x="1286" d="M80 1059v76l248 26h2l37 -24v-691q0 -129 18 -201.5t67.5 -107.5t143.5 -35q90 0 172 39t141 92v791l-155 35v76l272 26h2l47 -24v-1047h127l-2 -78q-10 -2 -59 -16t-111 -14q-53 0 -77.5 18t-24.5 68v79q-76 -68 -178.5 -119t-204.5 -51q-186 0 -265 104.5t-79 340.5 v602zM475 1405l317 395l139 -112q-41 -61 -181 -183.5t-212 -154.5z" />
<glyph unicode="&#xfb;" horiz-adv-x="1286" d="M80 1059v76l248 26h2l37 -24v-691q0 -129 18 -201.5t67.5 -107.5t143.5 -35q90 0 172 39t141 92v791l-155 35v76l272 26h2l47 -24v-1047h127l-2 -78q-10 -2 -59 -16t-111 -14q-53 0 -77.5 18t-24.5 68v79q-76 -68 -178.5 -119t-204.5 -51q-186 0 -265 104.5t-79 340.5 v602zM254 1356l284 401h154l276 -399l-71 -43l-283 309l-295 -309z" />
<glyph unicode="&#xfc;" horiz-adv-x="1286" d="M80 1059v76l248 26h2l37 -24v-691q0 -129 18 -201.5t67.5 -107.5t143.5 -35q90 0 172 39t141 92v791l-155 35v76l272 26h2l47 -24v-1047h127l-2 -78q-10 -2 -59 -16t-111 -14q-53 0 -77.5 18t-24.5 68v79q-76 -68 -178.5 -119t-204.5 -51q-186 0 -265 104.5t-79 340.5 v602zM276 1473q0 55 32 95t89 40q49 0 78.5 -36t29.5 -83q0 -57 -32.5 -95t-91.5 -38q-48 0 -76.5 32.5t-28.5 84.5zM723 1473q0 55 31.5 95t88.5 40q49 0 79 -36t30 -83q0 -57 -33 -95t-94 -38q-45 0 -73.5 33.5t-28.5 83.5z" />
<glyph unicode="&#xfd;" horiz-adv-x="1171" d="M4 1053v84h453v-84l-166 -25l215 -627l106 -333l103 335l192 625l-143 25v84h393v-84l-106 -25q-154 -471 -243 -736t-114 -325q-72 -180 -127 -277.5t-131 -148.5t-190 -51q-29 0 -58.5 4t-42.5 10v152q25 -12 105 -12q63 0 115.5 25.5t107.5 103t109 227.5h-90 l-392 1026zM467 1405l317 395l139 -112q-41 -61 -181 -183.5t-212 -154.5z" />
<glyph unicode="&#xfe;" horiz-adv-x="1228" d="M-6 1567v75l299 35h4l39 -28v-623q63 59 152.5 100t197.5 41q121 0 222.5 -59t164 -184t62.5 -314q0 -176 -72 -320.5t-205 -228.5t-307 -84q-104 0 -221 23l4 -135l2 -258l235 -23v-80h-561v80l160 23v1941zM336 154q14 -33 80.5 -52.5t148.5 -19.5q176 0 282.5 130 t106.5 382q0 225 -95 336.5t-241 111.5q-86 0 -161.5 -40.5t-120.5 -90.5v-757z" />
<glyph unicode="&#xff;" horiz-adv-x="1171" d="M4 1053v84h453v-84l-166 -25l215 -627l106 -333l103 335l192 625l-143 25v84h393v-84l-106 -25q-154 -471 -243 -736t-114 -325q-72 -180 -127 -277.5t-131 -148.5t-190 -51q-29 0 -58.5 4t-42.5 10v152q25 -12 105 -12q63 0 115.5 25.5t107.5 103t109 227.5h-90 l-392 1026zM268 1473q0 55 32 95t89 40q49 0 78.5 -36t29.5 -83q0 -57 -32.5 -95t-91.5 -38q-48 0 -76.5 32.5t-28.5 84.5zM715 1473q0 55 31.5 95t88.5 40q49 0 79 -36t30 -83q0 -57 -33 -95t-94 -38q-45 0 -73.5 33.5t-28.5 83.5z" />
<glyph unicode="&#x152;" horiz-adv-x="2103" d="M76 752q0 238 93 419t253 278t352 97q145 0 260 -55v31h840l29 -308h-97l-55 199l-551 10v-589l381 6l25 168h104v-453h-104l-25 176l-381 6v-637l635 21l119 256l96 -27l-78 -350h-938v66q-147 -82 -321 -82q-199 0 -342.5 96t-219 270t-75.5 402zM258 752 q0 -186 57.5 -340t167 -243t258.5 -89q182 0 293 117v1153q-106 102 -289 102q-147 0 -256.5 -82t-170 -239.5t-60.5 -378.5z" />
<glyph unicode="&#x153;" horiz-adv-x="1961" d="M94 575q0 178 76 312.5t197.5 207t257.5 72.5q150 0 256 -62.5t163 -178.5q72 115 183.5 178t249.5 63q180 0 282.5 -104.5t110.5 -300.5q0 -127 -12 -180h-730q0 -213 96.5 -350.5t272.5 -137.5q86 0 176 31t142 74l32 -76q-61 -61 -173.5 -103.5t-225.5 -42.5 q-147 0 -254 64.5t-168 183.5q-70 -115 -180.5 -181.5t-243.5 -66.5q-258 0 -383 162t-125 436zM281 588q0 -238 84 -370t245 -132q158 0 245 118t87 355q0 225 -82 363.5t-248 138.5q-160 0 -245.5 -122t-85.5 -351zM1130 678h556q4 57 4 90q0 135 -61.5 215t-192.5 80 q-281 0 -306 -385z" />
<glyph unicode="&#x178;" horiz-adv-x="1310" d="M-18 1434v88h489v-88l-172 -23l309 -580l74 -163l80 163l297 580l-172 23v88h444v-88l-135 -23l-442 -823v-479l233 -21v-88h-633v88l228 18v480l-473 823zM297 1808q0 57 30.5 97.5t87.5 40.5h2q49 0 79 -37t30 -84q0 -57 -33 -95t-92 -38h-2q-47 0 -74.5 33.5 t-27.5 82.5zM784 1808q0 57 30.5 97.5t88.5 40.5h2q49 0 77.5 -36t28.5 -85q0 -57 -32.5 -95t-92.5 -38q-47 0 -74.5 33.5t-27.5 82.5z" />
<glyph unicode="&#x2c6;" horiz-adv-x="1060" d="M168 1374l285 402h153l277 -400l-72 -43l-283 309l-295 -309z" />
<glyph unicode="&#x2dc;" horiz-adv-x="1060" d="M127 1442q18 76 92 141.5t174 65.5q59 0 98 -26t82 -73q37 -39 64 -57t63 -18q61 0 95 38.5t55 92.5l84 -47q-27 -88 -90.5 -147.5t-157.5 -59.5q-57 0 -95 24.5t-85 69.5q-41 41 -70.5 60.5t-68.5 19.5q-61 0 -94 -37t-62 -94z" />
<glyph unicode="&#x2000;" horiz-adv-x="1006" />
<glyph unicode="&#x2001;" horiz-adv-x="2013" />
<glyph unicode="&#x2002;" horiz-adv-x="1006" />
<glyph unicode="&#x2003;" horiz-adv-x="2013" />
<glyph unicode="&#x2004;" horiz-adv-x="671" />
<glyph unicode="&#x2005;" horiz-adv-x="503" />
<glyph unicode="&#x2006;" horiz-adv-x="335" />
<glyph unicode="&#x2007;" horiz-adv-x="335" />
<glyph unicode="&#x2008;" horiz-adv-x="251" />
<glyph unicode="&#x2009;" horiz-adv-x="402" />
<glyph unicode="&#x200a;" horiz-adv-x="111" />
<glyph unicode="&#x2010;" horiz-adv-x="1284" d="M229 596v123h826v-123h-826z" />
<glyph unicode="&#x2011;" horiz-adv-x="1284" d="M229 596v123h826v-123h-826z" />
<glyph unicode="&#x2012;" horiz-adv-x="1284" d="M229 596v123h826v-123h-826z" />
<glyph unicode="&#x2013;" horiz-adv-x="1665" d="M229 594v125h1205v-125h-1205z" />
<glyph unicode="&#x2014;" horiz-adv-x="2402" d="M229 594v125h1944v-125h-1944z" />
<glyph unicode="&#x2018;" horiz-adv-x="774" d="M238 1247q0 117 39.5 218.5t96 170t101.5 90.5l47 -49v-18q-25 -18 -59.5 -78.5t-59 -146.5t-24.5 -174q0 -37 17.5 -64t54.5 -70q33 -35 49 -60.5t16 -57.5q0 -47 -24.5 -73t-65.5 -26q-47 0 -91 48.5t-70.5 126t-26.5 163.5z" />
<glyph unicode="&#x2019;" horiz-adv-x="774" d="M250 940v18q25 18 58.5 89t59 165.5t25.5 184.5q0 20 -15.5 39.5t-43.5 44.5q-37 35 -57.5 63.5t-20.5 65.5q0 47 24.5 72.5t65.5 25.5q49 0 92 -37t70 -103.5t27 -150.5q0 -119 -41 -231.5t-97.5 -192.5t-99.5 -102z" />
<glyph unicode="&#x201a;" horiz-adv-x="774" d="M250 -469q25 18 58.5 89t59 165t25.5 184q0 20 -15.5 40t-43.5 44q-37 35 -57.5 63.5t-20.5 65.5q0 47 24.5 73t65.5 26q49 0 92 -37t70 -103.5t27 -150.5q0 -119 -41 -231.5t-97.5 -192.5t-99.5 -103l-47 50v18z" />
<glyph unicode="&#x201c;" horiz-adv-x="1292" d="M238 1247q0 117 39.5 218.5t95 170t100.5 90.5h2l47 -49v-18q-49 -35 -96 -124t-47 -216q0 -72 21.5 -116t62.5 -91q27 -31 40 -53.5t13 -50.5q0 -47 -24.5 -73t-65.5 -26q-47 0 -91 48.5t-70.5 126t-26.5 163.5zM756 1247q0 117 40 218.5t95 170t100 90.5h2l47 -49v-18 q-49 -35 -96 -124t-47 -216q0 -72 21.5 -116t62.5 -91q27 -31 40 -53.5t13 -50.5q0 -47 -24.5 -73t-65.5 -26q-47 0 -91 48.5t-70.5 126t-26.5 163.5z" />
<glyph unicode="&#x201d;" horiz-adv-x="1292" d="M250 940v18q27 18 60.5 75t58 137.5t24.5 168.5q0 53 -20.5 89t-57.5 75q-29 29 -44 52.5t-15 54.5q0 47 24.5 72.5t65.5 25.5q47 0 91 -48t71 -126t27 -164q0 -117 -40 -218t-95.5 -170t-100.5 -91h-2zM768 940v18q27 18 60.5 75t58 137.5t24.5 168.5q0 53 -20.5 89 t-56.5 75q-29 29 -44.5 52.5t-15.5 54.5q0 47 24.5 72.5t65.5 25.5q47 0 91 -48t71 -126t27 -164q0 -117 -40 -218t-95.5 -170t-100.5 -91h-2z" />
<glyph unicode="&#x201e;" horiz-adv-x="1292" d="M250 -438q49 35 96 124t47 216q0 72 -21.5 115.5t-62.5 91.5q-27 31 -40 53t-13 51q0 47 24.5 72.5t65.5 25.5q47 0 91 -48t71 -126t27 -164q0 -117 -40 -218t-95.5 -169.5t-100.5 -91.5h-2l-47 49v19zM768 -438q49 35 96 124t47 216q0 72 -21.5 115.5t-62.5 91.5 q-27 31 -40 53t-13 51q0 47 24.5 72.5t65.5 25.5q47 0 91 -48t71 -126t27 -164q0 -117 -40 -218t-95.5 -169.5t-100.5 -91.5h-2l-47 49v19z" />
<glyph unicode="&#x2022;" horiz-adv-x="841" d="M250 692q0 76 54 128t126 52q70 0 116 -51t46 -127q0 -74 -54.5 -128t-123.5 -54q-70 0 -116 53t-48 127z" />
<glyph unicode="&#x2026;" horiz-adv-x="1511" d="M131 92q0 57 40 96t93 39q55 0 83 -32.5t28 -81.5q0 -57 -39 -96.5t-92 -39.5q-47 0 -80 32t-33 83zM635 92q0 57 40 96t91 39q55 0 84 -32.5t29 -81.5q0 -57 -40 -96.5t-94 -39.5q-47 0 -78.5 32t-31.5 83zM1137 92q0 57 40 96t93 39q55 0 82.5 -32.5t27.5 -81.5 q0 -59 -38.5 -97.5t-94.5 -38.5q-45 0 -77.5 32t-32.5 83z" />
<glyph unicode="&#x202f;" horiz-adv-x="402" />
<glyph unicode="&#x2039;" horiz-adv-x="813" d="M115 545v135l471 440l92 -67l-369 -439l369 -424l-92 -73z" />
<glyph unicode="&#x203a;" horiz-adv-x="813" d="M135 190l369 424l-369 439l92 67l471 -440v-135l-471 -428z" />
<glyph unicode="&#x205f;" horiz-adv-x="503" />
<glyph unicode="&#x20ac;" horiz-adv-x="1413" d="M41 870l41 103h201q63 289 239 441.5t430 152.5q90 0 163 -15.5t153 -40.5q18 -4 34.5 -9t32.5 -9l-16 -322h-94l-31 224q-33 31 -111.5 50t-175.5 19q-182 0 -298.5 -122.5t-159.5 -368.5h591l-41 -103h-561q-4 -102 -4 -120q0 -72 2 -105h486l-41 -102h-435 q59 -479 457 -480q88 0 152.5 26t128.5 73l53 164l94 -19l-22 -239q-20 -2 -46 -10.5t-55 -18.5q-80 -31 -155.5 -49.5t-188.5 -18.5q-258 0 -408.5 152.5t-187.5 419.5h-223l41 102h172v70q0 94 6 155h-223z" />
<glyph unicode="&#x2122;" horiz-adv-x="2244" d="M143 1329l21 225h706v-223l-65 -4l-23 139l-194 11v-609l143 -12v-78h-428v78l139 12v607l-190 -9l-39 -135zM971 778v78l114 12l39 594l-114 8v84h319l158 -426l61 -190l213 616h303v-84l-116 -8l53 -594l106 -12v-78h-344v78l97 12l-25 387l-12 228l-33 -107l-217 -606 h-90l-207 547l-68 170l-4 -176l-26 -443l100 -12v-78h-307z" />
<glyph unicode="&#x25fc;" horiz-adv-x="1136" d="M0 0v1137h1137v-1137h-1137z" />
<glyph unicode="&#xfb03;" horiz-adv-x="2281" d="M63 1014v82l207 39v100q0 123 63.5 226.5t165 165t212.5 61.5q66 0 114 -17v-168q-16 12 -66 24.5t-116 12.5q-109 0 -158 -57.5t-49 -194.5v-153h297v-121h-297v-912l234 -14v-88h-580v88l180 16v910h-207zM872 1014v82l207 39v100q0 123 63.5 226.5t165 165t212.5 61.5 q66 0 114 -17v-168q-16 12 -66 24.5t-116 12.5q-109 0 -158 -57.5t-49 -194.5v-153h297v-121h-297v-912l234 -14v-88h-580v88l180 16v910h-207zM1704 0v88l180 16v897l-160 35v92l281 33h4l41 -33v-1026l178 -14v-88h-524zM1839 1468q0 59 35 97.5t94 38.5q61 0 88 -34 t27 -83q0 -63 -34 -99t-97 -36h-2q-111 -1 -111 116z" />
<glyph unicode="&#xfb04;" horiz-adv-x="2291" d="M63 1014v82l207 39v100q0 123 63.5 226.5t165 165t212.5 61.5q66 0 114 -17v-168q-16 12 -66 24.5t-116 12.5q-109 0 -158 -57.5t-49 -194.5v-153h297v-121h-297v-912l234 -14v-88h-580v88l180 16v910h-207zM872 1014v82l207 39v100q0 123 63.5 226.5t165 165t212.5 61.5 q66 0 114 -17v-168q-16 12 -66 24.5t-116 12.5q-109 0 -158 -57.5t-49 -194.5v-153h297v-121h-297v-912l234 -14v-88h-580v88l180 16v910h-207zM1698 0v88l180 16v1444l-174 19v75l299 35h2l39 -26v-1549l192 -14v-88h-538z" />
</font>
</defs>
</svg>
